Asuka601
隐世仙人♂

[更 早] [其它] [剧情] [BD-1080P] 蓝白红三部曲之红[中文字幕].Three.Colors.Red.1994.Criterion.Collection.BluRay.1080p.HEVC.10bi

-->

完整标题:蓝白红三部曲之红[中文字幕].Three.Colors.Red.1994.Criterion.Collection.BluRay.1080p.HEVC.10bit-MOMOHD 3.49GB



◎标  题 蓝白红三部曲之红
◎译  名 红 / 红色情深(台) / 三色之红色篇 / 三色:红 / 红色 / Three Colors: Red
◎片  名 Trois couleurs: Rouge
◎年  代 1994
◎产  地 法国 / 波兰 / 瑞士
◎类  别 剧情 / 爱情 / 悬疑
◎语  言 法语
◎上映日期 1994-05-12(戛纳电影节) / 1994-05-27(波兰) / 1994-09-14(法国)
◎IMDb评分 8.1/10 (108474人评价)
◎IMDb链接 https://www.imdb.com/title/tt0111495/
◎豆瓣评分 8.8/10 (123309人评价)
◎豆瓣链接 https://movie.douban.com/subject/1292047/
◎片  长 99分钟
◎导  演 克日什托夫·基耶斯洛夫斯基 Krzysztof Kieślowski
◎编  剧 克日什托夫·基耶斯洛夫斯基 Krzysztof Kieślowski
      克日什托夫·皮耶谢维奇 Krzysztof Piesiewicz
      阿格涅丝卡·霍兰 Agnieszka Holland
      爱德华·泽布罗夫斯基 Edward Żebrowski
      爱德华·克罗西斯基 Edward Klosinski
◎演  员 伊莲娜·雅各布 Irène Jacob
      让-路易·特兰蒂尼昂 Jean-Louis Trintignant
      弗雷德里奎·费德 Frédérique Feder
      让-皮耶·罗利特 Jean-Pierre Lorit
      塞缪尔·勒·比汉 Samuel Le Bihan
      马里恩·斯泰伦斯 Marion Stalens
      特科·切里奥 Teco Celio
      伯纳德·埃斯卡隆 Bernard Escalon
      让·施莱格尔 Jean Schlegel
      埃尔兹别塔·亚辛斯卡 Elzbieta Jasinska
      保罗·弗梅伦 Paul Vermeulen
      让-马利·道纳斯 Jean-Marie Daunas
      罗兰·凯里 Roland Carey
      朱丽叶·比诺什 Juliette Binoche
      贝努特·里格恩特 Benoît Régent
      朱莉·德尔佩 Julie Delpy
      泽比纽·扎马洲斯基 Zbigniew Zamachowski

◎简  介
    女学生瓦伦丁(伊莲娜·雅各布 Irène Jacob饰)是个兼职模特,男朋友远在英国。尽管她非常珍惜这段感情,却无法阻止男友对自己的猜忌。   退休法官(简-路易斯·特林提格南特 Jean-Louis Trintignant饰)年轻时经历过铭心刻骨的情伤,爱人的背叛让他不再相信这个世界。唯一的乐趣,就是窃听邻居的电话,看人与人之间是如何充满欺骗。认识瓦伦丁之后,他冰封多年的情感开始融化。   法律系学生奥古斯特(简·皮埃尔·洛里 Jean-Pierre Lorit饰)前程锦绣,却不得不面对恋人感情的出轨。他决定前往英国一段时间,以摆脱痛苦的心情,在客轮上遇到了同往英国寻找男友的瓦伦丁。   轮船遇到强对流天气,暴风雨过后电视新闻上播放着轮船遇险的消息。一百多人罹难的同时,瓦伦丁和奥古斯丁双双幸存,他们觉得对方似曾相识……

点击图片可查看大图

软字幕无法在截图上展现,HDR版本/杜比视界版本截图会出现颜色异常,请使用支持的设备播放!

##### MediaInfo ######
General
Unique ID : 252560776430739105940106981515436667276 (0xBE016FAB7EDF0C57F45D14E97EF2B18C)
Complete name : 蓝白红三部曲之红.Three.Colors.Red.1994.Criterion.Collection.BluRay.1080p.HEVC.10bit-MOMOHD.mkv
Duration : 1 h 39 min
Overall bit rate : 5 013 kb/s

Video
ID : 1
Format : HEVC
Format/Info : High Efficiency Video Coding
Format profile : Main 10@L4@Main
Codec ID : V_MPEGH/ISO/HEVC
Duration : 1 h 39 min
Bit rate : 4 550 kb/s
Width : 1 920 pixels
Height : 1 036 pixels
Display aspect ratio : 1.85:1
Frame rate mode : Constant
Frame rate : 23.976 (24000/1001) FPS
Color space : YUV
Chroma subsampling : 4:2:0
Bit depth : 10 bits
Bits/(Pixel*Frame) : 0.095
Stream size : 3.16 GiB (91%)
Writing library : x265 3.14f6dde51a5db:[Windows][GCC 6.3.0][64 bit] 10bit
Encoding settings : cpuid=1111039 / frame-threads=3 / numa-pools=8 / wpp / no-pmode / no-pme / no-psnr / no-ssim / log-level=2 / input-csp=1 / input-res=1920x1036 / interlace=0 / total-frames=143241 / level-idc=0 / high-tier=1 / uhd-bd=0 / ref=3 / no-allow-non-conformance / no-repeat-headers / annexb / no-aud / no-hrd / info / hash=0 / no-temporal-layers / no-open-gop / min-keyint=23 / keyint=250 / gop-lookahead=0 / bframes=4 / b-adapt=2 / b-pyramid / bframe-bias=0 / rc-lookahead=20 / lookahead-slices=6 / scenecut=40 / radl=0 / no-splice / no-intra-refresh / ctu=64 / min-cu-size=8 / no-rect / no-amp / max-tu-size=32 / tu-inter-depth=1 / tu-intra-depth=1 / limit-tu=0 / rdoq-level=0 / dynamic-rd=0.00 / no-ssim-rd / signhide / no-tskip / nr-intra=0 / nr-inter=0 / no-constrained-intra / no-strong-intra-smoothing / max-merge=3 / limit-refs=1 / no-limit-modes / me=1 / subme=2 / merange=57 / temporal-mvp / weightp / no-weightb / no-analyze-src-pics / deblock=0:0 / no-sao / no-sao-non-deblock / rd=3 / early-skip / rskip / no-fast-intra / no-tskip-fast / no-cu-lossless / b-intra / no-splitrd-skip / rdpenalty=0 / psy-rd=2.00 / psy-rdoq=0.00 / no-rd-refine / no-lossless / cbqpoffs=0 / crqpoffs=0 / rc=crf / crf=22.0 / qcomp=0.60 / qpstep=4 / stats-write=0 / stats-read=0 / ipratio=1.40 / pbratio=1.30 / aq-mode=2 / aq-strength=0.80 / cutree / zone-count=0 / no-strict-cbr / qg-size=32 / no-rc-grain / qpmax=69 / qpmin=0 / no-const-vbv / sar=0 / overscan=0 / videoformat=5 / range=0 / colorprim=2 / transfer=2 / colormatrix=2 / chromaloc=0 / display-window=0cll=0,0 / min-luma=0 / max-luma=1023 / log2-max-poc-lsb=8 / vui-timing-info / vui-hrd-info / slices=1 / no-opt-qp-pps / no-opt-ref-list-length-pps / no-multi-pass-opt-rps / scenecut-bias=0.05 / no-opt-cu-delta-qp / no-aq-motion / no-hdr / no-hdr-opt / no-dhdr10-opt / no-idr-recovery-sei / analysis-reuse-level=5 / scale-factor=0 / refine-intra=0 / refine-inter=0 / refine-mv=0 / refine-ctu-distortion=0 / no-limit-sao / ctu-info=0 / no-lowpass-dct / refine-analysis-type=0 / copy-pic=1 / max-ausize-factor=1.0 / no-dynamic-refine / no-single-sei / no-hevc-aq / no-svt / no-field / qp-adaptation-range=1.00
Default : Yes
Forced : No

Audio
ID : 2
Format : AC-3
Format/Info : Audio Coding 3
Commercial name : Dolby Digital
Codec ID : A_AC3
Duration : 1 h 39 min
Bit rate mode : Constant
Bit rate : 448 kb/s
Channel(s) : 2 channels
Channel layout : L R
Sampling rate : 48.0 kHz
Frame rate : 31.250 FPS (1536 SPF)
Compression mode : Lossy
Stream size : 319 MiB (9%)
Service kind : Complete Main
Default : Yes
Forced : No

Text #1
ID : 3
Format : UTF-8
Codec ID : S_TEXT/UTF8
Codec ID/Info : UTF-8 Plain Text
Duration : 1 h 33 min
Bit rate : 25 b/s
Frame rate : 0.149 FPS
Count of elements : 837
Stream size : 17.4 KiB (0%)
Default : Yes
Forced : No

Text #2
ID : 4
Format : UTF-8
Codec ID : S_TEXT/UTF8
Codec ID/Info : UTF-8 Plain Text
Duration : 1 h 33 min
Bit rate : 25 b/s
Frame rate : 0.149 FPS
Count of elements : 837
Stream size : 17.4 KiB (0%)
Default : No
Forced : No

Text #3
ID : 5
Format : PGS
Muxing mode : zlib
Codec ID : S_HDMV/PGS
Codec ID/Info : Picture based subtitle format used on BDs/HD-DVDs
Duration : 1 h 34 min
Bit rate : 22.7 kb/s
Frame rate : 0.267 FPS
Count of elements : 1511
Stream size : 15.3 MiB (0%)
Default : No
Forced : No

Text #4
ID : 6
Format : PGS
Muxing mode : zlib
Codec ID : S_HDMV/PGS
Codec ID/Info : Picture based subtitle format used on BDs/HD-DVDs
Duration : 1 h 34 min
Bit rate : 12.5 kb/s
Frame rate : 0.276 FPS
Count of elements : 1560
Stream size : 8.45 MiB (0%)
Default : No
Forced : No


部分资源为软字幕,移动端推荐播放器:MxPlayer,nPlayer,infuse ,其他播放器请自行尝试。

部分资源为软字幕,电脑端推荐播放器:PotPlayer,完美解码,KMPLAYER,其他播放器请自行尝试。

下载端推荐纯BT下载软件:qBittorrent,Bitcomet,uTorrent ,其他下载软件请自行尝试。不支持吸血迅雷。



1 个附件 售价 大小 下载 时间

Three.Colors.Red.1994.Criterion.Collection.BluRay.1080p.HEVC.10bit-MOMOHD[1LOU.ME].torrent 0 金币 11.34K 854 次 1月前

#1楼
发帖时间:2024-04-18 21:21:00   |   回复数:0
游客组