Asuka601
隐世仙人♂

[2022] [大陆] [爱情] [WEB-4K] 青蛇:前缘[国语配音/中文字幕].Green.Snake-.The.Fate.of.Reunion.2022.2160p.WEB-DL.H265.DDP2.0-

-->

完整标题:青蛇:前缘[国语配音/中文字幕].Green.Snake-.The.Fate.of.Reunion.2022.2160p.WEB-DL.H265.DDP2.0-BATWEB 3.13GB



◎标  题 青蛇:前缘
◎译  名 青蛇·尘缘 / 青蛇
◎年  代 2022
◎产  地 中国大陆
◎类  别 爱情 / 奇幻
◎语  言 汉语普通话
◎上映日期 2022-04-01(中国大陆)
◎IMDb链接 https://www.imdb.com/title//
◎豆瓣评分 4.2/10 (2409人评价)
◎豆瓣链接 https://movie.douban.com/subject/35173787/
◎片  长 87分钟
◎演  员 钟欣潼 Gillian Chung
      麦亨利 Henry Mai
      林佑威 Yo-Wei Lin
      孙美楠 Meinan Sun
      姜萌轩 Michelle Jiang
      肖沅希
      周洛伊 Luoyi Zhou
      喻庆辉 Qinghui Yu

◎简  介
    千年前由天界灵树奇雨果幻化成人的道清(林佑威 饰),遇到青蛇(钟欣潼 饰)来此修仙,二人日渐情深。道清逆天而行将奇雨果渡给青蛇,助她化为鲛,自己堕入轮回之劫。数百年间,执念深重的青蛇不断寻找道清转世,欲解开心上人的生死劫。而稽灵山山神子岳(麦亨利 饰)在默默守护她……

点击图片可查看大图

软字幕无法在截图上展现,HDR版本/杜比视界版本截图会出现颜色异常,请使用支持的设备播放!

##### MediaInfo ######
General
Unique ID : 58607380670466401694087191889014409845 (0x2C175EF5E4B4DF378A98F88C67B7CA75)
Complete name : Green.Snake-.The.Fate.of.Reunion.2022.2160p.WEB-DL.H265.DDP2.0-BATWEB.mkv
Duration : 1 h 27 min
Overall bit rate : 5 093 kb/s

Video
ID : 1
Format : HEVC
Format/Info : High Efficiency Video Coding
Format profile : Main@L5@Main
Codec ID : V_MPEGH/ISO/HEVC
Duration : 1 h 27 min
Bit rate : 4 805 kb/s
Width : 3 840 pixels
Height : 1 440 pixels
Display aspect ratio : 2.667
Frame rate mode : Constant
Frame rate : 25.000 FPS
Color space : YUV
Chroma subsampling : 4:2:0
Bit depth : 8 bits
Bits/(Pixel*Frame) : 0.035
Stream size : 2.95 GiB (94%)
Language : Chinese
Default : Yes
Forced : No

Audio #1
ID : 2
Format : AAC LC
Format/Info : Advanced Audio Codec Low Complexity
Codec ID : A_AAC-2
Duration : 1 h 27 min
Bit rate : 192 kb/s
Channel(s) : 2 channels
Channel layout : L R
Sampling rate : 44.1 kHz
Frame rate : 43.066 FPS (1024 SPF)
Compression mode : Lossy
Stream size : 119 MiB (4%)
Default : No
Forced : No

Audio #2
ID : 3
Format : E-AC-3
Format/Info : Enhanced AC-3
Commercial name : Dolby Digital Plus
Codec ID : A_EAC3
Duration : 1 h 27 min
Bit rate mode : Constant
Bit rate : 96.0 kb/s
Channel(s) : 2 channels
Channel layout : L R
Sampling rate : 48.0 kHz
Frame rate : 31.250 FPS (1536 SPF)
Compression mode : Lossy
Stream size : 60.4 MiB (2%)
Title : zh-ch [Dolby Digital Plus 2.0]
Language : Chinese
Service kind : Complete Main
Default : Yes
Forced : No


部分资源为软字幕,移动端推荐播放器:MxPlayer,nPlayer,infuse ,其他播放器请自行尝试。

部分资源为软字幕,电脑端推荐播放器:PotPlayer,完美解码,KMPLAYER,其他播放器请自行尝试。

下载端推荐纯BT下载软件:qBittorrent,Bitcomet,uTorrent ,其他下载软件请自行尝试。不支持吸血迅雷。



1 个附件 售价 大小 下载 时间

Green.Snake-.The.Fate.of.Reunion.2022.2160p.WEB-DL.H265.DDP2.0-BATWEB[1LOU.ME].torrent 0 金币 10.41K 630 次 1月前

#1楼
发帖时间:2024-04-18 21:22:05   |   回复数:0
游客组