Asuka601
隐世仙人♂

[2022] [大陆] [动作] [WEB-4K] 驱魔天师[国语配音/中文字幕].The.Exorcist.2022.2160p.WEB-DL.H265.DDP2.0-BATWEB 3.42GB

-->

完整标题:驱魔天师[国语配音/中文字幕].The.Exorcist.2022.2160p.WEB-DL.H265.DDP2.0-BATWEB 3.42GB



◎标  题 驱魔天师
◎年  代 2022
◎产  地 中国大陆
◎类  别 动作 / 惊悚
◎语  言 汉语普通话
◎上映日期 2022-06-24(中国大陆)
◎IMDb链接 https://www.imdb.com/title//
◎豆瓣评分 5.6/10 (2210人评价)
◎豆瓣链接 https://movie.douban.com/subject/35938131/
◎片  长 87分钟
◎导  演 董伟 Wei Dong
◎演  员 钱小豪 Siu-hou Chin
      于小彬 Yu Xiaobin
      王蔷 Qiang Wang

◎简  介
    驱魔大师林九的徒弟刘一泽,在向心上人丁香提亲之时,发现丁家被狐妖所控制,一阵斗法后,误以为狐妖已被师傅封印,在黄妖小曦的提醒下,发现狐妖附身在了林天师身上,在激烈的打斗中,林天师为了保护众人,用桃木剑刺进自己的心脏,与狐妖同归于尽,临死前传位于刘一泽,刘一泽因此成为了新一任驱魔天师,替师傅去完成未完成的使命。

点击图片可查看大图

软字幕无法在截图上展现,HDR版本/杜比视界版本截图会出现颜色异常,请使用支持的设备播放!

##### MediaInfo ######
General
Unique ID : 7898124880635286129812990043733277731 (0x5F11F9F1610345E9579988015CABC23)
Complete name : The.Exorcist.2022.2160p.WEB-DL.H265.DDP2.0-BATWEB.mkv
Duration : 1 h 26 min
Overall bit rate : 5 646 kb/s

Video
ID : 1
Format : HEVC
Format/Info : High Efficiency Video Coding
Format profile : Main@L5@Main
Codec ID : V_MPEGH/ISO/HEVC
Duration : 1 h 26 min
Bit rate : 5 359 kb/s
Width : 3 840 pixels
Height : 1 440 pixels
Display aspect ratio : 2.667
Frame rate mode : Variable
Frame rate : 24.920 FPS
Original frame rate : 25.000 FPS
Color space : YUV
Chroma subsampling : 4:2:0
Bit depth : 8 bits
Bits/(Pixel*Frame) : 0.039
Stream size : 3.24 GiB (95%)
Language : Chinese
Default : Yes
Forced : No

Audio #1
ID : 2
Format : AAC LC
Format/Info : Advanced Audio Codec Low Complexity
Codec ID : A_AAC-2
Duration : 1 h 26 min
Bit rate : 192 kb/s
Channel(s) : 2 channels
Channel layout : L R
Sampling rate : 44.1 kHz
Frame rate : 43.066 FPS (1024 SPF)
Compression mode : Lossy
Stream size : 117 MiB (3%)
Default : No
Forced : No

Audio #2
ID : 3
Format : E-AC-3
Format/Info : Enhanced AC-3
Commercial name : Dolby Digital Plus
Codec ID : A_EAC3
Duration : 1 h 26 min
Bit rate mode : Constant
Bit rate : 96.0 kb/s
Channel(s) : 2 channels
Channel layout : L R
Sampling rate : 48.0 kHz
Frame rate : 31.250 FPS (1536 SPF)
Compression mode : Lossy
Stream size : 59.5 MiB (2%)
Title : zh-ch [Dolby Digital Plus 2.0]
Language : Chinese
Service kind : Complete Main
Default : Yes
Forced : No


部分资源为软字幕,移动端推荐播放器:MxPlayer,nPlayer,infuse ,其他播放器请自行尝试。

部分资源为软字幕,电脑端推荐播放器:PotPlayer,完美解码,KMPLAYER,其他播放器请自行尝试。

下载端推荐纯BT下载软件:qBittorrent,Bitcomet,uTorrent ,其他下载软件请自行尝试。不支持吸血迅雷。



1 个附件 售价 大小 下载 时间

The.Exorcist.2022.2160p.WEB-DL.H265.DDP2.0-BATWEB[1LOU.ME].torrent 0 金币 11.09K 721 次 29天前

#1楼
发帖时间:2024-04-18 21:28:39   |   回复数:1
liyouchai
隐世仙人♂
谢谢楼主分享资源
29天前 #2楼
游客组