lvchao9947
一代宗师

[更 早] [欧美] [剧情] [BD-1080P] 血染夜行车[简繁英字幕].The.Incident.1967.1080p.BluRay.x264.FLAC.2.0-SONYHD 9.40GB

-->

完整标题:血染夜行车[简繁英字幕].The.Incident.1967.1080p.BluRay.x264.FLAC.2.0-SONYHD 9.40GB



◎标  题 血染夜行车
◎译  名 意外事件
◎片  名 The Incident
◎年  代 1967
◎产  地 美国
◎类  别 剧情 / 犯罪
◎语  言 英语
◎上映日期 1967-11-05
◎IMDb评分 7.6/10 (4445人评价)
◎IMDb链接 https://www.imdb.com/title/tt0061814/
◎豆瓣评分 8.0/10 (1372人评价)
◎豆瓣链接 https://movie.douban.com/subject/1304657/
◎片  长 107 分钟
◎导  演 拉里·皮尔斯 Larry Peerce
◎编  剧 尼古拉斯·E·贝尔 Nicholas E. Baehr
◎演  员 托尼·穆萨蒂 Tony Musante
      马丁·辛 Martin Sheen
      露比·迪 Ruby Dee
      简·斯特林 Jan Sterling
      瑟尔玛·瑞特 Thelma Ritter
      Diana Van der Vlis Diana Van der Vlis
      维克多·阿诺德 Victor Arnold
      Henry Proach Henry Proach
      布洛克·皮特斯 Brock Peters
      Ted Lawrie Ted Lawrie
      迈克·凯林 Mike Kellin
      罗伯特·菲尔兹 Robert Fields
      Don De Leo Don De Leo
      杰克·吉尔福德 Jack Gilford
      Robert Bannard Robert Bannard
      唐娜·米尔斯 Donna Mills
      加里·梅里尔 Gary Merrill
      艾德·麦克马洪 Ed McMahon
      博·布里奇斯 Beau Bridges

◎简  介
    深夜的纽约,夜班列车上两个地痞混混对乘客们肆意骚扰,人们敢怒不敢言,直到一个回乡的士兵挺身而出...

##### MediaInfo ######
General
Unique ID : 192967520392828138633629041847486355696 (0x912C314D0BA27072F8D2DD8D20CB98F0)
Complete name : The.Incident.1967.1080p.BluRay.x264.FLAC.2.0-SONYHD.mkv
Duration : 1 h 39 min
Overall bit rate mode : Variable
Overall bit rate : 13.5 Mb/s

Video
ID : 1
Format : AVC
Format/Info : Advanced Video Codec
Format profile : [email protected]
Format settings : CABAC / 4 Ref Frames
Format settings, CABAC : Yes
Format settings, Reference frames : 4 frames
Codec ID : V_MPEG4/ISO/AVC
Duration : 1 h 39 min
Bit rate : 13.1 Mb/s
Width : 1 920 pixels
Height : 1 036 pixels
Display aspect ratio : 1.85:1
Frame rate mode : Constant
Frame rate : 23.976 (24000/1001) FPS
Color space : YUV
Chroma subsampling : 4:2:0
Bit depth : 8 bits
Scan type : Progressive
Bits/(Pixel*Frame) : 0.274
Stream size : 9.10 GiB (97%)
Writing library : x264 core 164 r3099+55M 141af3f t_mod_New [(8 & 10)-bit@all X86_64]
Encoding settings : cabac=1 / ref=4 / deblock=1:-3:-3 / analyse=0x3:0x133 / me=umh / subme=11 / psy=1 / fade_compensate=0.00 / psy_rd=1.00:0.00 / mixed_ref=1 / me_range=48 / chroma_me=1 / trellis=2 / 8x8dct=1 / cqm=0 / deadzone=21,11 / fast_pskip=0 / chroma_qp_offset=-3 / threads=24 / lookahead_threads=6 / sliced_threads=0 / nr=0 / decimate=0 / interlaced=0 / bluray_compat=0 / constrained_intra=0 / fgo=0 / bframes=11 / b_pyramid=2 / b_adapt=2 / b_bias=0 / direct=3 / weightb=1 / open_gop=0 / weightp=2 / keyint=240 / keyint_min=1 / scenecut=40 / intra_refresh=0 / rc_lookahead=72 / rc=crf / mbtree=0 / crf=22.5000 / qcomp=0.60 / qpmin=0:0:0 / qpmax=69:69:69 / qpstep=4 / vbv_maxrate=62500 / vbv_bufsize=78125 / crf_max=0.0 / nal_hrd=none / filler=0 / ip_ratio=1.40 / pb_ratio=1.30 / aq=3:0.80 / aq-sensitivity=10.00 / aq-factor=1.00:1.00:1.00 / aq2=0 / aq3=0
Default : Yes
Forced : No

Audio
ID : 2
Format : FLAC
Format/Info : Free Lossless Audio Codec
Codec ID : A_FLAC
Duration : 1 h 39 min
Bit rate mode : Variable
Bit rate : 346 kb/s
Channel(s) : 2 channels
Channel layout : L R
Sampling rate : 48.0 kHz
Frame rate : 11.719 FPS (4096 SPF)
Bit depth : 16 bits
Compression mode : Lossless
Stream size : 246 MiB (3%)
Writing library : libFLAC 1.2.1 (UTC 2007-09-17)
Language : English
Default : Yes
Forced : No

Text #1
ID : 3
ID in the original source medium : 4609 (0x1201)
Format : PGS
Muxing mode : zlib
Codec ID : S_HDMV/PGS
Codec ID/Info : Picture based subtitle format used on BDs/HD-DVDs
Duration : 1 h 38 min
Bit rate : 48.9 kb/s
Frame rate : 0.433 FPS
Count of elements : 2567
Stream size : 34.6 MiB (0%)
Title : chs&eng
Language : Chinese
Default : Yes
Forced : No
Original source medium : Blu-ray

Text #2
ID : 4
ID in the original source medium : 4610 (0x1202)
Format : PGS
Muxing mode : zlib
Codec ID : S_HDMV/PGS
Codec ID/Info : Picture based subtitle format used on BDs/HD-DVDs
Duration : 1 h 38 min
Bit rate : 49.1 kb/s
Frame rate : 0.433 FPS
Count of elements : 2567
Stream size : 34.7 MiB (0%)
Title : cht&eng
Language : Chinese
Default : No
Forced : No
Original source medium : Blu-ray

Text #3
ID : 5
ID in the original source medium : 4611 (0x1203)
Format : PGS
Muxing mode : zlib
Codec ID : S_HDMV/PGS
Codec ID/Info : Picture based subtitle format used on BDs/HD-DVDs
Duration : 1 h 38 min
Bit rate : 26.3 kb/s
Frame rate : 0.433 FPS
Count of elements : 2567
Stream size : 18.6 MiB (0%)
Title : chs
Language : Chinese
Default : No
Forced : No
Original source medium : Blu-ray

Text #4
ID : 6
ID in the original source medium : 4612 (0x1204)
Format : PGS
Muxing mode : zlib
Codec ID : S_HDMV/PGS
Codec ID/Info : Picture based subtitle format used on BDs/HD-DVDs
Duration : 1 h 38 min
Bit rate : 26.5 kb/s
Frame rate : 0.433 FPS
Count of elements : 2567
Stream size : 18.7 MiB (0%)
Title : cht
Language : Chinese
Default : No
Forced : No
Original source medium : Blu-ray

Text #5
ID : 7
ID in the original source medium : 4608 (0x1200)
Format : PGS
Muxing mode : zlib
Codec ID : S_HDMV/PGS
Codec ID/Info : Picture based subtitle format used on BDs/HD-DVDs
Duration : 1 h 38 min
Bit rate : 53.9 kb/s
Frame rate : 0.487 FPS
Count of elements : 2886
Stream size : 38.1 MiB (0%)
Title : eng
Language : English
Default : No
Forced : No
Original source medium : Blu-ray

Menu
00:00:00.000 : en:Chapter 01
00:10:44.018 : en:Chapter 02
00:22:37.731 : en:Chapter 03
00:33:23.459 : en:Chapter 04
00:43:21.181 : en:Chapter 05
00:57:56.806 : en:Chapter 06
01:17:35.901 : en:Chapter 07
01:29:23.358 : en:Chapter 08


部分资源为软字幕,移动端推荐播放器:MxPlayer,nPlayer,infuse ,其他播放器请自行尝试。

部分资源为软字幕,电脑端推荐播放器:PotPlayer,完美解码,KMPLAYER,其他播放器请自行尝试。

下载端推荐纯BT下载软件:qBittorrent,Bitcomet,uTorrent ,其他下载软件请自行尝试。不支持吸血迅雷。



1 个附件 售价 大小 下载 时间

The.Incident.1967.1080p.BluRay.x264.FLAC.2.0-SONYHD[1LOU.ME].torrent 0 金币 26.15K 833 次 27天前

#1楼
发帖时间:2024-05-18 09:52:21   |   回复数:1
jokingcheung
超凡入圣№
谢谢分享
25天前 #2楼
游客组