lvchao9947
一代宗师

[2021] [大陆] [剧情] [WEB-4K] 关于我妈的一切[杜比视界版本][高码版][国语配音/中文字幕].All.About.My.Mother.2021.2160p.HQ.WEB-DL.H265.DV

-->

完整标题:关于我妈的一切[杜比视界版本][高码版][国语配音/中文字幕].All.About.My.Mother.2021.2160p.HQ.WEB-DL.H265.DV.DDP5.1-DreamHD 17.34GB



◎标  题 关于我妈的一切
◎译  名 All About My Mother / 中国版世上最美的离别
◎年  代 2021
◎产  地 中国大陆
◎类  别 剧情 / 家庭
◎语  言 汉语普通话
◎上映日期 2021-09-19(中国大陆)
◎IMDb评分 6.4/10 (63人评价)
◎IMDb链接 https://www.imdb.com/title/tt13649566/
◎豆瓣评分 6.2/10 (60339人评价)
◎豆瓣链接 https://movie.douban.com/subject/35196097/
◎片  长 120分钟
◎导  演 赵天宇 Tianyu Zhao
◎编  剧 李洁 Jie Li
      赵天宇 Tianyu Zhao
      朱珠 Zhu Zhu
      田晓威 Xiaowei Tian
      闫美璇
      卢熙京 Hee-Kyung Noh
◎演  员 徐帆 Fan Xu
      张婧仪 Joy Zhang
      许亚军 Yajun Xu
      张歆艺 Xinyi Zhang
      陈明昊 Minghao Chen
      吴彦姝 Yanshu Wu
      李程彬 Toby Lee
      韩云云 Yunyun Han
      赵晓苏 Xiaosu Zhao

◎简  介
    妈妈季佩珍(徐帆 饰)是这个家的灵魂所在,她像有分身术一样能照顾到每一个人。在她的面面俱到之下,这个家看上去井然有序,然而事实并非如此。在妈妈季佩珍眼里女儿李小美(张婧仪 饰)永远都是最优秀的,却不知在北京工作生活的她还有另一面。女儿对妈妈的掌控有多抵触,季佩珍更是不了解。医生丈夫李文舫(许亚军 饰)因几年前的一次失误,至今还无法拿起手术刀。婆婆患有阿尔兹海默症,生活都无法自理……就在身为教师的季佩珍刚刚退休,似乎能松一口气多拥有些自己的时间,却被查出了恶性肿瘤四期。如果妈妈只剩下四个月的生命,这家人的生活又该如何继续下去呢?

点击图片可查看大图

软字幕无法在截图上展现,HDR版本/杜比视界版本截图会出现颜色异常,请使用支持的设备播放!

##### MediaInfo ######
General
Unique ID : 266757348304600955907707290366633787411 (0xC8AF98B420752D5DB7E4D764B66F4013)
Complete name : All.About.My.Mother.2021.2160p.HQ.WEB-DL.H265.DV.DDP5.1-DreamHD.mkv
Duration : 1 h 59 min
Overall bit rate : 20.7 Mb/s

Video
ID : 1
Format : HEVC
Format/Info : High Efficiency Video Coding
Format profile : Main [email protected]@Main
HDR format : Dolby Vision, Version 1.0, dvhe.05.06, BL+RPU
Codec ID : V_MPEGH/ISO/HEVC
Duration : 1 h 59 min
Bit rate : 20.0 Mb/s
Width : 3 840 pixels
Height : 1 608 pixels
Display aspect ratio : 2.40:1
Frame rate mode : Constant
Frame rate : 24.000 FPS
Color space : YUV
Chroma subsampling : 4:2:0
Bit depth : 10 bits
Bits/(Pixel*Frame) : 0.135
Stream size : 16.7 GiB (97%)
Language : Chinese
Default : Yes
Forced : No
Color range : Full

Audio #1
ID : 2
Format : E-AC-3
Format/Info : Enhanced AC-3
Commercial name : Dolby Digital Plus
Codec ID : A_EAC3
Duration : 1 h 59 min
Bit rate mode : Constant
Bit rate : 256 kb/s
Channel(s) : 6 channels
Channel layout : L R C LFE Ls Rs
Sampling rate : 48.0 kHz
Frame rate : 31.250 FPS (1536 SPF)
Compression mode : Lossy
Stream size : 219 MiB (1%)
Title : [DDP5.1]
Language : Chinese
Service kind : Complete Main
Default : Yes
Forced : No

Audio #2
ID : 3
Format : AAC LC
Format/Info : Advanced Audio Codec Low Complexity
Codec ID : A_AAC-2
Duration : 1 h 59 min
Bit rate : 256 kb/s
Channel(s) : 6 channels
Channel layout : C L R Ls Rs LFE
Sampling rate : 44.1 kHz
Frame rate : 43.066 FPS (1024 SPF)
Compression mode : Lossy
Stream size : 219 MiB (1%)
Title : [AAC5.1]
Language : Chinese
Default : No
Forced : No

Audio #3
ID : 4
Format : AAC LC
Format/Info : Advanced Audio Codec Low Complexity
Codec ID : A_AAC-2
Duration : 1 h 59 min
Bit rate : 192 kb/s
Channel(s) : 2 channels
Channel layout : L R
Sampling rate : 44.1 kHz
Frame rate : 43.066 FPS (1024 SPF)
Compression mode : Lossy
Stream size : 164 MiB (1%)
Title : [AAC2.0]
Language : Chinese
Default : No
Forced : No


部分资源为软字幕,移动端推荐播放器:MxPlayer,nPlayer,infuse ,其他播放器请自行尝试。

部分资源为软字幕,电脑端推荐播放器:PotPlayer,完美解码,KMPLAYER,其他播放器请自行尝试。

下载端推荐纯BT下载软件:qBittorrent,Bitcomet,uTorrent ,其他下载软件请自行尝试。不支持吸血迅雷。



1 个附件 售价 大小 下载 时间

All.About.My.Mother.2021.2160p.HQ.WEB-DL.H265.DV.DDP5.1-DreamHD[1LOU.ME].torrent 0 金币 46.06K 623 次 27天前

#1楼
发帖时间:2024-05-18 09:52:50   |   回复数:0
游客组