lvchao9947
一代宗师

[2023] [大陆] [爱情] [WEB-4K] 念念相忘[120帧率版本][国语配音/中文字幕].Just.For.Meeting.You.2023.2160p.WEB-DL.H265.HDR.120fps.

-->

完整标题:念念相忘[120帧率版本][国语配音/中文字幕].Just.For.Meeting.You.2023.2160p.WEB-DL.H265.HDR.120fps.DDP5.1-DreamHD 9.05GB



◎标  题 念念相忘
◎译  名 念念不忘 / 我与世界只差一个你 / Just For Meeting You
◎年  代 2023
◎产  地 中国大陆
◎类  别 爱情
◎语  言 汉语普通话
◎上映日期 2023-08-22(中国大陆)
◎IMDb评分 7.1/10 (75人评价)
◎IMDb链接 https://www.imdb.com/title/tt16116726/
◎豆瓣评分 5.9/10 (30264人评价)
◎豆瓣链接 https://movie.douban.com/subject/35424911/
◎片  长 103分钟
◎导  演 刘雨霖 Yulin Liu
◎编  剧 范文文 Wenwen Fan
      胡舒欣 Shuxin Hu
      张皓宸 Haochen Zhang
◎演  员 刘浩存 Haocun Liu
      宋威龙 Weilong Song
      卜冠今 Guanjin Bu
      郭丞 Cheng Guo
      高亚麟 Yalin Gao
      倪虹洁 Hongjie Ni
      郭柯宇 Keyu Guo
      张磊 Lei Zhang

◎简  介
    转校生许念念与少年杨燚因误会结下梁子,水火不容的两人展开一系列比拼,本以为是好胜心作祟,却在不知不觉中萌发了情愫。飒爽的少女与中二的少年,就这样一起度过了热血又难忘的高中时光,最后却遗憾地擦身而过……当念念不忘的两人再次相见,他们能否勇敢一场,排除万难直面内心的喜欢?   电影改编自张皓宸小说《我与世界只差一个你》。

点击图片可查看大图

软字幕无法在截图上展现,HDR版本/杜比视界版本截图会出现颜色异常,请使用支持的设备播放!

##### MediaInfo ######
General
Unique ID : 71269861099653466555872191625338685861 (0x359E137245D48D931BF154D14E6E09A5)
Complete name : Just.For.Meeting.You.2023.2160p.WEB-DL.H265.HDR.120fps.DDP5.1-DreamHD.mkv
Duration : 1 h 42 min
Overall bit rate : 12.6 Mb/s

Video
ID : 1
Format : HEVC
Format/Info : High Efficiency Video Coding
Format profile : Main [email protected]@Main
Codec ID : V_MPEGH/ISO/HEVC
Duration : 1 h 42 min
Bit rate : 11.4 Mb/s
Width : 3 840 pixels
Height : 1 608 pixels
Display aspect ratio : 2.40:1
Frame rate mode : Variable
Frame rate : 120.000 FPS
Color space : YUV
Chroma subsampling : 4:2:0
Bit depth : 10 bits
Bits/(Pixel*Frame) : 0.015
Stream size : 8.17 GiB (90%)
Default : Yes
Forced : No
Color range : Limited
Color primaries : BT.2020
Transfer characteristics : PQ
Matrix coefficients : BT.2020 non-constant

Audio #1
ID : 2
Format : E-AC-3
Format/Info : Enhanced AC-3
Commercial name : Dolby Digital Plus
Codec ID : A_EAC3
Duration : 1 h 42 min
Bit rate mode : Constant
Bit rate : 448 kb/s
Channel(s) : 6 channels
Channel layout : L R C LFE Ls Rs
Sampling rate : 48.0 kHz
Frame rate : 31.250 FPS (1536 SPF)
Compression mode : Lossy
Stream size : 328 MiB (4%)
Title : Mandarin [DDP5.1]
Language : Chinese
Service kind : Complete Main
Default : Yes
Forced : No

Audio #2
ID : 3
Format : E-AC-3
Format/Info : Enhanced AC-3
Commercial name : Dolby Digital Plus
Codec ID : A_EAC3
Duration : 1 h 42 min
Bit rate mode : Constant
Bit rate : 256 kb/s
Channel(s) : 2 channels
Channel layout : L R
Sampling rate : 48.0 kHz
Frame rate : 31.250 FPS (1536 SPF)
Bit depth : 32 bits
Compression mode : Lossy
Stream size : 188 MiB (2%)
Title : Mandarin [DDP2.0]
Language : Chinese
Service kind : Complete Main
Default : No
Forced : No

Audio #3
ID : 4
Format : AAC LC
Format/Info : Advanced Audio Codec Low Complexity
Codec ID : A_AAC-2
Duration : 1 h 42 min
Bit rate : 256 kb/s
Channel(s) : 6 channels
Channel layout : C L R Ls Rs LFE
Sampling rate : 44.1 kHz
Frame rate : 43.066 FPS (1024 SPF)
Compression mode : Lossy
Stream size : 188 MiB (2%)
Title : Mandarin [AAC5.1]
Language : Chinese
Default : No
Forced : No

Audio #4
ID : 5
Format : AAC LC
Format/Info : Advanced Audio Codec Low Complexity
Codec ID : A_AAC-2
Duration : 1 h 42 min
Bit rate : 256 kb/s
Channel(s) : 2 channels
Channel layout : L R
Sampling rate : 44.1 kHz
Frame rate : 43.066 FPS (1024 SPF)
Compression mode : Lossy
Stream size : 188 MiB (2%)
Title : Mandarin [AAC2.0]
Language : Chinese
Default : No
Forced : No


部分资源为软字幕,移动端推荐播放器:MxPlayer,nPlayer,infuse ,其他播放器请自行尝试。

部分资源为软字幕,电脑端推荐播放器:PotPlayer,完美解码,KMPLAYER,其他播放器请自行尝试。

下载端推荐纯BT下载软件:qBittorrent,Bitcomet,uTorrent ,其他下载软件请自行尝试。不支持吸血迅雷。



1 个附件 售价 大小 下载 时间

Just.For.Meeting.You.2023.2160p.WEB-DL.H265.HDR.120fps.DDP5.1-DreamHD[1LOU.ME].torrent 0 金币 25.32K 1078 次 1月前

#1楼
发帖时间:2024-05-18 09:53:19   |   回复数:0
游客组