lvchao9947
一代宗师

[2023] [大陆] [剧情] [WEB-4K] 摩登澡堂[国语配音/中文字幕].Rhapsody.in.Bathhouse.2024.2160p.WEB-DL.H265.EDR.DDP5.1-BATWEB 8

-->

完整标题:摩登澡堂[国语配音/中文字幕].Rhapsody.in.Bathhouse.2024.2160p.WEB-DL.H265.EDR.DDP5.1-BATWEB 8.19GB



◎标  题 摩登澡堂
◎译  名 Rhapsody in Bathhouse / Modern Bathhouse
◎年  代 2023
◎产  地 中国大陆
◎类  别 剧情 / 喜剧
◎语  言 汉语普通话
◎上映日期 2023-09-26(丝绸之路电影节)
◎IMDb链接 https://www.imdb.com/title//
◎豆瓣链接 https://movie.douban.com/subject/35610252/
◎片  长 90分钟
◎导  演 张奕辄 Yizhe Zhang
◎演  员 黄天允 Tianyun Huang
      訾富尔 Fuer Zi
      宋歌 Ge Song
      王双宝 Shuangbao Wang
      李宝安 Baoan Li
      王沛禄 Peilu Wang

◎简  介
    影片藉由一场突如其来的“穿越”展开,现代人郑辉回到过去,遇见年轻时候的父亲。带着父亲修脚工身份的羞耻及现代社会浮躁的气息,让他对这个单纯朴实的年代有些“水土不服”。跨时代人之间的观念冲突也惹出了许多感动与笑料。郑辉和90年代父亲的慢时光之间相互连接,在参与了年轻时父母经历的种种后,让郑辉对于经历了时代变迁的普通人身上仍存的平凡而伟大的梦想有了更深层次的思考,开始走进父亲内心,真正去理解……

点击图片可查看大图

软字幕无法在截图上展现,HDR版本/杜比视界版本截图会出现颜色异常,请使用支持的设备播放!

##### MediaInfo ######
General
Unique ID : 175694320707711260242818257484034885394 (0x842D7ECE02C4B1EDE1D179ADE4BC4712)
Complete name : Rhapsody.in.Bathhouse.2024.2160p.WEB-DL.H265.EDR.DDP5.1-BATWEB.mkv
Duration : 1 h 31 min
Overall bit rate : 12.8 Mb/s

Video
ID : 1
Format : HEVC
Format/Info : High Efficiency Video Coding
Format profile : Main@L5@Main
Codec ID : V_MPEGH/ISO/HEVC
Duration : 1 h 31 min
Bit rate : 12.3 Mb/s
Width : 3 840 pixels
Height : 1 608 pixels
Display aspect ratio : 2.40:1
Frame rate mode : Constant
Frame rate : 24.000 FPS
Color space : YUV
Chroma subsampling : 4:2:0
Bit depth : 8 bits
Bits/(Pixel*Frame) : 0.083
Stream size : 7.90 GiB (96%)
Language : Chinese
Default : Yes
Forced : No

Audio #1
ID : 2
Format : AAC LC
Format/Info : Advanced Audio Codec Low Complexity
Codec ID : A_AAC-2
Duration : 1 h 31 min
Bit rate : 192 kb/s
Channel(s) : 2 channels
Channel layout : L R
Sampling rate : 44.1 kHz
Frame rate : 43.066 FPS (1024 SPF)
Compression mode : Lossy
Stream size : 124 MiB (1%)
Default : No
Forced : No

Audio #2
ID : 3
Format : E-AC-3
Format/Info : Enhanced AC-3
Commercial name : Dolby Digital Plus
Codec ID : A_EAC3
Duration : 1 h 31 min
Bit rate mode : Constant
Bit rate : 256 kb/s
Channel(s) : 6 channels
Channel layout : L R C LFE Ls Rs
Sampling rate : 48.0 kHz
Frame rate : 31.250 FPS (1536 SPF)
Compression mode : Lossy
Stream size : 168 MiB (2%)
Title : zh-ch [Dolby Digital Plus 5.1]
Language : Chinese
Service kind : Complete Main
Default : Yes
Forced : No


部分资源为软字幕,移动端推荐播放器:MxPlayer,nPlayer,infuse ,其他播放器请自行尝试。

部分资源为软字幕,电脑端推荐播放器:PotPlayer,完美解码,KMPLAYER,其他播放器请自行尝试。

下载端推荐纯BT下载软件:qBittorrent,Bitcomet,uTorrent ,其他下载软件请自行尝试。不支持吸血迅雷。



1 个附件 售价 大小 下载 时间

Rhapsody.in.Bathhouse.2024.2160p.WEB-DL.H265.EDR.DDP5.1-BATWEB[1LOU.ME].torrent 0 金币 23.13K 875 次 27天前

#1楼
发帖时间:2024-05-18 10:46:51   |   回复数:0
游客组