lvchao9947
一代宗师

[更 早] [大陆] [剧情] [WEB-4K] 霸王别姬[HDR/杜比视界双版本][国语配音/中文字幕].Farewell.My.Concubine.1993.BluRay.2160p.DTS-HD.MA5.

-->

完整标题:霸王别姬[HDR/杜比视界双版本][国语配音/中文字幕].Farewell.My.Concubine.1993.BluRay.2160p.DTS-HD.MA5.1.HDR.DoVi.x265.10bit-DreamHD 32.77GB



◎标  题 霸王别姬
◎译  名 再见,我的妾 / Farewell My Concubine / Adieu Ma Concubine
◎年  代 1993
◎产  地 中国大陆 / 中国香港
◎类  别 剧情 / 爱情 / 同性
◎语  言 汉语普通话
◎上映日期 1993-07-26(中国大陆) / 1993-01-01(中国香港)
◎IMDb评分 8.1/10 (32236人评价)
◎IMDb链接 https://www.imdb.com/title/tt0106332/
◎豆瓣评分 9.6/10 (2185599人评价)
◎豆瓣链接 https://movie.douban.com/subject/1291546/
◎片  长 171分钟 / 155分钟(美国剧场版)
◎导  演 陈凯歌 Kaige Chen
◎编  剧 芦苇 Wei Lu
      李碧华 Lilian Lee Pik-Wah
◎演  员 张国荣 Leslie Cheung
      张丰毅 Fengyi Zhang
      巩俐 Li Gong
      葛优 You Ge
      英达 Da Ying
      蒋雯丽 Wenli Jiang
      吴大维 David Wu
      吕齐 Qi Lü
      雷汉 Han Lei
      尹治 Zhi Yin
      马明威 Mingwei Ma
      费振翔 Zhenxiang Fei
      智一桐 Yitong Zhi
      李春 Chun Li
      赵海龙 Hailong Zhao
      李丹 Dan Li
      童弟 Di Tong
      沈慧芬 Huifen Shen
      黄斐 Fei Huang
      徐杰 Jade Hsu
      黄磊 Lei Huang
      冯远征 Yuanzheng Feng
      杨立新 LiXin Yang
      方征 Zheng Fang
      周璞 Pu Zhou
      隋永清 Yongqing Sui
      宋小川 Xiaochuan Song
      杜广沛 Guangpei Du

◎简  介
    段小楼(张丰毅)与程蝶衣(张国荣)是一对打小一起长大的师兄弟,两人一个演生,一个饰旦,一向配合天衣无缝,尤其一出《霸王别姬》,更是誉满京城,为此,两人约定合演一辈子《霸王别姬》。但两人对戏剧与人生关系的理解有本质不同,段小楼深知戏非人生,程蝶衣则是人戏不分。   段小楼在认为该成家立业之时迎娶了名妓菊仙(巩俐),致使程蝶衣认定菊仙是可耻的第三者,使段小楼做了叛徒,自此,三人围绕一出《霸王别姬》生出的爱恨情仇战开始随着时代风云的变迁不断升级,终酿成悲剧。

点击图片可查看大图

软字幕无法在截图上展现,HDR版本/杜比视界版本截图会出现颜色异常,请使用支持的设备播放!

##### MediaInfo ######
General
Unique ID : 6077344005522761460272345006794166210 (0x49274317F1FC9E39DE3993D9DA14FC2)
Complete name : Farewell.My.Concubine.1993.BluRay.2160p.DTS-HD.MA5.1.HDR.DoVi.x265.10bit-DreamHD.mkv
Duration : 2 h 51 min
Overall bit rate mode : Variable
Overall bit rate : 27.3 Mb/s

Video
ID : 1
Format : HEVC
Format/Info : High Efficiency Video Coding
Format profile : Main 10@L6@Main
HDR format : Dolby Vision, Version 1.0, dvhe.08.06, BL+RPU, HDR10 compatible / SMPTE ST 2086, HDR10 compatible
Codec ID : V_MPEGH/ISO/HEVC
Duration : 2 h 51 min
Bit rate : 25.8 Mb/s
Width : 3 840 pixels
Height : 2 076 pixels
Display aspect ratio : 1.85:1
Frame rate mode : Constant
Frame rate : 23.976 (24000/1001) FPS
Color space : YUV
Chroma subsampling : 4:2:0 (Type 2)
Bit depth : 10 bits
Bits/(Pixel*Frame) : 0.135
Stream size : 30.9 GiB (94%)
Writing library : x265 3.5f0c1022b6:[Linux][GCC 10.3.0][64 bit] 10bit
Encoding settings : cpuid=1111039 / frame-threads=6 / wpp / no-pmode / no-pme / no-psnr / no-ssim / log-level=4 / input-csp=1 / input-res=3840x2076 / interlace=0 / total-frames=246953 / level-idc=0 / high-tier=1 / uhd-bd=0 / ref=6 / no-allow-non-conformance / repeat-headers / annexb / no-aud / no-hrd / info / hash=0 / no-temporal-layers / no-open-gop / min-keyint=23 / keyint=250 / gop-lookahead=0 / bframes=14 / b-adapt=2 / b-pyramid / bframe-bias=0 / rc-lookahead=75 / lookahead-slices=8 / scenecut=40 / hist-scenecut=0 / radl=0 / no-splice / no-intra-refresh / ctu=32 / min-cu-size=8 / no-rect / no-amp / max-tu-size=32 / tu-inter-depth=1 / tu-intra-depth=1 / limit-tu=0 / rdoq-level=0 / dynamic-rd=0.00 / no-ssim-rd / signhide / no-tskip / nr-intra=0 / nr-inter=0 / no-constrained-intra / no-strong-intra-smoothing / max-merge=3 / limit-refs=1 / no-limit-modes / me=3 / subme=7 / merange=48 / temporal-mvp / no-frame-dup / hme / Level / merange / L0,L1,L2=24,36,48 / weightp / weightb / no-analyze-src-pics / deblock=0:0 / sao / no-sao-non-deblock / rd=4 / selective-sao=4 / early-skip / rskip / no-fast-intra / no-tskip-fast / no-cu-lossless / b-intra / no-splitrd-skip / rdpenalty=2 / psy-rd=2.00 / psy-rdoq=0.00 / no-rd-refine / no-lossless / cbqpoffs=0 / crqpoffs=0 / rc=crf / crf=18.0 / qcomp=0.60 / qpstep=4 / stats-write=0 / stats-read=0 / ipratio=1.40 / pbratio=1.30 / aq-mode=1 / aq-strength=1.00 / cutree / zone-count=0 / no-strict-cbr / qg-size=32 / no-rc-grain / qpmax=69 / qpmin=0 / no-const-vbv / sar=0 / overscan=0 / videoformat=5 / range=0 / colorprim=9 / transfer=16 / colormatrix=9 / chromaloc=1 / chromaloc-top=2 / chromaloc-bottom=2 / display-window=0 / master-display=G(8500,39850)B(6550,2300)R(35400,14600)WP(15635,16450)L(10000000,1) / cll=981,307 / min-luma=0 / max-luma=1023 / log2-max-poc-lsb=8 / vui-timing-info / vui-hrd-info / slices=1 / no-opt-qp-pps / no-opt-ref-list-length-pps / no-multi-pass-opt-rps / scenecut-bias=0.05 / hist-threshold=0.03 / no-opt-cu-delta-qp / aq-motion / hdr10 / no-hdr10-opt / no-dhdr10-opt / no-idr-recovery-sei / analysis-reuse-level=0 / analysis-save-reuse-level=0 / analysis-load-reuse-level=0 / scale-factor=0 / refine-intra=0 / refine-inter=0 / refine-mv=1 / refine-ctu-distortion=0 / no-limit-sao / ctu-info=0 / no-lowpass-dct / refine-analysis-type=0 / copy-pic=1 / max-ausize-factor=1.0 / no-dynamic-refine / no-single-sei / no-hevc-aq / no-svt / no-field / qp-adaptation-range=1.00 / scenecut-aware-qp=0conformance-window-offsets / right=0 / bottom=0 / decoder-max-rate=0 / no-vbv-live-multi-pass
Default : Yes
Forced : No
Color range : Limited
Color primaries : BT.2020
Transfer characteristics : PQ
Matrix coefficients : BT.2020 non-constant
Mastering display color primaries : BT.2020
Mastering display luminance : min: 0.0001 cd/m2, max: 1000 cd/m2
Maximum Content Light Level : 981 cd/m2
Maximum Frame-Average Light Level : 307 cd/m2

Audio
ID : 2
Format : DTS XLL
Format/Info : Digital Theater Systems
Commercial name : DTS-HD Master Audio
Codec ID : A_DTS
Duration : 2 h 51 min
Bit rate mode : Variable
Bit rate : 1 501 kb/s
Channel(s) : 6 channels
Channel layout : C L R Ls Rs LFE
Sampling rate : 48.0 kHz
Frame rate : 93.750 FPS (512 SPF)
Bit depth : 16 bits
Compression mode : Lossless
Stream size : 1.80 GiB (5%)
Title : CHS
Language : Chinese
Default : Yes
Forced : No

Text #1
ID : 3
Format : PGS
Muxing mode : zlib
Codec ID : S_HDMV/PGS
Codec ID/Info : Picture based subtitle format used on BDs/HD-DVDs
Duration : 2 h 48 min
Bit rate : 18.4 kb/s
Frame rate : 0.389 FPS
Count of elements : 3934
Stream size : 22.1 MiB (0%)
Title : CHS
Language : Chinese
Default : Yes
Forced : No

Text #2
ID : 4
Format : PGS
Muxing mode : zlib
Codec ID : S_HDMV/PGS
Codec ID/Info : Picture based subtitle format used on BDs/HD-DVDs
Duration : 2 h 48 min
Bit rate : 18.5 kb/s
Frame rate : 0.389 FPS
Count of elements : 3934
Stream size : 22.3 MiB (0%)
Title : CHT
Language : Chinese
Default : No
Forced : No

Text #3
ID : 5
Format : PGS
Muxing mode : zlib
Codec ID : S_HDMV/PGS
Codec ID/Info : Picture based subtitle format used on BDs/HD-DVDs
Duration : 2 h 48 min
Bit rate : 36.9 kb/s
Frame rate : 0.389 FPS
Count of elements : 3934
Stream size : 44.5 MiB (0%)
Title : CHS&ENG
Language : Chinese
Default : No
Forced : No

Text #4
ID : 6
Format : PGS
Muxing mode : zlib
Codec ID : S_HDMV/PGS
Codec ID/Info : Picture based subtitle format used on BDs/HD-DVDs
Duration : 2 h 48 min
Bit rate : 37.0 kb/s
Frame rate : 0.389 FPS
Count of elements : 3934
Stream size : 44.6 MiB (0%)
Title : CHT&ENG
Language : Chinese
Default : No
Forced : No

Menu
00:00:00.000 : en:Chapter 01
00:03:29.209 : en:Chapter 02
00:16:42.042 : en:Chapter 03
00:22:23.467 : en:Chapter 04
00:29:42.363 : en:Chapter 05
00:36:01.701 : en:Chapter 06
00:43:40.992 : en:Chapter 07
00:54:05.492 : en:Chapter 08
00:59:59.512 : en:Chapter 09
01:11:51.724 : en:Chapter 10
01:21:20.625 : en:Chapter 11
01:31:04.457 : en:Chapter 12
01:42:07.328 : en:Chapter 13
01:47:35.573 : en:Chapter 14
02:00:48.865 : en:Chapter 15
02:12:05.417 : en:Chapter 16
02:24:57.313 : en:Chapter 17
02:34:43.816 : en:Chapter 18
02:42:38.372 : en:Chapter 19
02:51:38.996 : en:Chapter 20


部分资源为软字幕,移动端推荐播放器:MxPlayer,nPlayer,infuse ,其他播放器请自行尝试。

部分资源为软字幕,电脑端推荐播放器:PotPlayer,完美解码,KMPLAYER,其他播放器请自行尝试。

下载端推荐纯BT下载软件:qBittorrent,Bitcomet,uTorrent ,其他下载软件请自行尝试。不支持吸血迅雷。



1 个附件 售价 大小 下载 时间

Farewell.My.Concubine.1993.BluRay.2160p.DTS-HD.MA5.1.HDR.DoVi.x265.10bit-Dr..[1LOU.ME].torrent 0 金币 84.76K 2639 次 1月前

#1楼
发帖时间:2024-05-18 14:08:03   |   回复数:3
dontchat75
小有名气
太棒了!没想到这个还能出4K
1月前 #2楼
liyouchai
隐世仙人♂
谢谢楼主分享资源
1月前 #3楼
jokingcheung
超凡入圣№
谢谢分享
1月前 #4楼
游客组