lvchao9947
一代宗师

[2022] [其它] [剧情] [BD-1080P] 敲[中文字幕].Koputus.2022.BluRay.1080p.AAC2.0.x264-DreamHD 2.57GB

-->

完整标题:敲[中文字幕].Koputus.2022.BluRay.1080p.AAC2.0.x264-DreamHD 2.57GB



◎标  题 敲
◎译  名 The Knocking
◎片  名 Koputus
◎年  代 2022
◎产  地 芬兰
◎类  别 剧情 / 恐怖 / 犯罪
◎语  言 芬兰语 / 瑞典语
◎上映日期 2022-10-09(锡切斯电影节) / 2023-02-22(芬兰)
◎IMDb评分 5.2/10 (827人评价)
◎IMDb链接 https://www.imdb.com/title/tt12851130/
◎豆瓣评分 4.6/10 (113人评价)
◎豆瓣链接 https://movie.douban.com/subject/36114467/
◎片  长 87分钟
◎演  员 佩卡·斯特朗 Pekka Strang
      因卡·卡伦 Inka Kallén
      萨娜·科伊维斯托 Saana Koivisto
      米科·莱皮兰皮 Mikko Leppilampi
      Olga Temonen Olga Temonen
      雅尼娜·伯曼 Janina Berman
      Niko Saarela Niko Saarela

◎简  介
    Three adult siblings go examine their late parents' house in the middle of the forest.

点击图片可查看大图

软字幕无法在截图上展现,HDR版本/杜比视界版本截图会出现颜色异常,请使用支持的设备播放!

##### MediaInfo ######
General
Complete name : Koputus.2022.BluRay.1080p.iPad.AAC2.0.x264-DreamHD.mp4
Duration : 1 h 29 min
Overall bit rate : 4 121 kb/s

Video
ID : 1
Format : AVC
Format/Info : Advanced Video Codec
Format profile : [email protected]
Format settings : 5 Ref Frames
Format settings, CABAC : No
Format settings, Reference frames : 5 frames
Codec ID : avc1
Codec ID/Info : Advanced Video Coding
Duration : 1 h 29 min
Bit rate : 4 000 kb/s
Maximum bit rate : 3 920 kb/s
Width : 1 920 pixels
Height : 1 080 pixels
Display aspect ratio : 16:9
Frame rate mode : Constant
Frame rate : 24.000 FPS
Color space : YUV
Chroma subsampling : 4:2:0
Bit depth : 8 bits
Scan type : Progressive
Bits/(Pixel*Frame) : 0.080
Stream size : 2.44 GiB (95%)
Writing library : x264 core 164 r3100 ed0f7a6
Encoding settings : cabac=0 / ref=5 / deblock=0:0:0 / analyse=0x1:0x111 / me=hex / subme=8 / psy=1 / psy_rd=1.00:0.00 / mixed_ref=1 / me_range=16 / chroma_me=1 / trellis=2 / 8x8dct=0 / cqm=0 / deadzone=21,11 / fast_pskip=1 / chroma_qp_offset=-2 / threads=24 / lookahead_threads=4 / sliced_threads=0 / nr=0 / decimate=1 / interlaced=0 / bluray_compat=0 / constrained_intra=0 / bframes=3 / b_pyramid=2 / b_adapt=1 / b_bias=0 / direct=3 / weightb=0 / open_gop=0 / weightp=0 / keyint=240 / keyint_min=24 / scenecut=40 / intra_refresh=0 / rc_lookahead=50 / rc=abr / mbtree=1 / bitrate=4000 / ratetol=1.0 / qcomp=0.60 / qpmin=0 / qpmax=69 / qpstep=4 / vbv_maxrate=800000 / vbv_bufsize=800000 / nal_hrd=none / filler=0 / ip_ratio=1.40 / aq=1:1.00
Encoded date : UTC 2024-05-17 05:20:44
Tagged date : UTC 2024-05-17 05:20:44
Color range : Limited
Color primaries : BT.709
Transfer characteristics : BT.709
Matrix coefficients : BT.709
Menus : 3
Codec configuration box : avcC

Audio
ID : 2
Format : AAC LC
Format/Info : Advanced Audio Codec Low Complexity
Codec ID : mp4a-40-2
Duration : 1 h 29 min
Source duration : 1 h 29 min
Bit rate mode : Constant
Bit rate : 192 kb/s
Channel(s) : 2 channels
Channel layout : L R
Sampling rate : 48.0 kHz
Frame rate : 46.875 FPS (1024 SPF)
Compression mode : Lossy
Stream size : 124 MiB (5%)
Source stream size : 124 MiB (5%)
Title : 环绕声 5.1
Language : German
Default : Yes
Alternate group : 1
Encoded date : UTC 2024-05-17 05:20:44
Tagged date : UTC 2024-05-17 05:20:44
Menus : 3

Menu
ID : 3
Format : Timed Text
Codec ID : text
Duration : 1 h 29 min
Language : English
Encoded date : UTC 2024-05-17 05:20:44
Tagged date : UTC 2024-05-17 05:20:44
Menu For : 1,2
00:00:00.000 : Chapter 1
00:07:43.000 : Chapter 2
00:14:00.333 : Chapter 3
00:22:08.417 : Chapter 4
00:29:22.750 : Chapter 5
00:35:20.458 : Chapter 6
00:41:19.250 : Chapter 7
00:48:12.542 : Chapter 8
00:55:17.500 : Chapter 9
01:03:20.042 : Chapter 10
01:09:35.875 : Chapter 11
01:16:35.792 : Chapter 12
01:24:18.500 : Chapter 13
01:29:08.875 : Chapter 14


部分资源为软字幕,移动端推荐播放器:MxPlayer,nPlayer,infuse ,其他播放器请自行尝试。

部分资源为软字幕,电脑端推荐播放器:PotPlayer,完美解码,KMPLAYER,其他播放器请自行尝试。

下载端推荐纯BT下载软件:qBittorrent,Bitcomet,uTorrent ,其他下载软件请自行尝试。不支持吸血迅雷。



1 个附件 售价 大小 下载 时间

Koputus.2022.BluRay.1080p.AAC2.0.x264-DreamHD[1LOU.ME].torrent 0 金币 9.13K 637 次 1月前

#1楼
发帖时间:2024-05-18 14:08:18   |   回复数:0
游客组