lvchao9947
一代宗师

[2024] [其它] [喜剧] [WEB-1080P] 独角兽塞尔玛[国英多音轨/简繁英字幕].Thelma.the.Unicorn.2024.1080p.NF.WEB-DL.DDP5.1.Atmos.H264-BA

-->

完整标题:独角兽塞尔玛[国英多音轨/简繁英字幕].Thelma.the.Unicorn.2024.1080p.NF.WEB-DL.DDP5.1.Atmos.H264-BATWEB 4.24GB



◎标  题 独角兽塞尔玛
◎片  名 Thelma the Unicorn
◎年  代 2024
◎产  地 加拿大 / 美国
◎类  别 喜剧 / 动画 / 歌舞 / 奇幻 / 冒险
◎语  言 英语
◎上映日期 2024-05-17(美国网络)
◎IMDb评分 6.2/10 (149人评价)
◎IMDb链接 https://www.imdb.com/title/tt10442352/
◎豆瓣链接 https://movie.douban.com/subject/35891541/
◎片  长 93分钟
◎导  演 杰瑞德·赫斯 Jared Hess
      Lynn Wang
◎编  剧 杰瑞德·赫斯 Jared Hess
      杰鲁莎·赫斯 Jerusha Hess
      艾伦·布拉培 Aaron Blabey
◎演  员  布里塔妮·霍花德
      威尔·福特 Will Forte
      乔恩·海德 Jon Heder
      达兰·诺里斯 Daran Norris
      大卫·米驰 David Michie
      贝琪·索达罗 Betsy Sodaro
      Lynn Wang
      帕姆·科茨 Pam Coats
      米歇尔·朱博利·冈萨雷斯 Michelle Jubilee Gonzalez
      桑德瑞拉·艾弗里 Shondrella Avery
      赫克特·吉门雷兹 Héctor Jiménez
      吉诺·席格斯 Geno Segers
      雪莉·可拉 Sherry Cola
      Matthew Wolf
      扎克·加利凡纳基斯 Zach Galifianakis
      Noelle Holsinger
      Ashley London
      Birdie Hess
      Carter Hurst
      K.J. Howard
      弗莱德·阿米森 Fred Armisen
      杰梅奈·克莱门特 Jemaine Clement
      艾迪·帕特森 Edi Patterson
      Malika Michelle
      Ally Dixon

◎简  介
    当一个罕见的粉红色和闪闪发光的命运时刻让小马塞尔玛成为独角兽的愿望成真时,她立刻成为了国际流行巨星,但付出了意想不到的代价。

点击图片可查看大图

软字幕无法在截图上展现,HDR版本/杜比视界版本截图会出现颜色异常,请使用支持的设备播放!

##### MediaInfo ######
General
Unique ID : 136349039728332397383029027294551556793 (0x6693DEAE7F6B193F120F3FFFA54542B9)
Complete name : Thelma.the.Unicorn.2024.1080p.NF.WEB-DL.DDP5.1.Atmos.H264-BATWEB.mkv
Duration : 1 h 38 min
Overall bit rate mode : Variable
Overall bit rate : 6 190 kb/s

Video
ID : 1
Format : AVC
Format/Info : Advanced Video Codec
Format profile : Main@L4
Format settings : CABAC / 3 Ref Frames
Format settings, CABAC : Yes
Format settings, Reference frames : 3 frames
Codec ID : V_MPEG4/ISO/AVC
Duration : 1 h 38 min
Bit rate mode : Variable
Bit rate : 5 000 kb/s
Maximum bit rate : 7 500 kb/s
Width : 1 920 pixels
Height : 1 080 pixels
Display aspect ratio : 16:9
Frame rate mode : Constant
Frame rate : 24.000 FPS
Color space : YUV
Chroma subsampling : 4:2:0
Bit depth : 8 bits
Scan type : Progressive
Bits/(Pixel*Frame) : 0.100
Stream size : 3.27 GiB (77%)
Writing library : x264 core 148 r2727 7d026e8
Encoding settings : cabac=1 / ref=3 / deblock=1:0:0 / analyse=0x1:0x111 / me=umh / subme=10 / psy=1 / psy_rd=1.00:0.00 / mixed_ref=1 / me_range=24 / chroma_me=1 / trellis=2 / 8x8dct=0 / cqm=0 / deadzone=21,11 / fast_pskip=1 / chroma_qp_offset=-2 / threads=6 / lookahead_threads=1 / sliced_threads=0 / nr=0 / decimate=1 / interlaced=0 / bluray_compat=0 / stitchable=1 / constrained_intra=0 / bframes=2 / b_pyramid=0 / b_adapt=2 / b_bias=0 / direct=3 / weightb=1 / open_gop=0 / weightp=2 / keyint=240 / keyint_min=121 / scenecut=0 / intra_refresh=0 / rc_lookahead=48 / rc=2pass / mbtree=1 / bitrate=5000 / ratetol=1.0 / qcomp=0.50 / qpmin=6 / qpmax=51 / qpstep=4 / cplxblur=20.0 / qblur=0.5 / vbv_maxrate=7500 / vbv_bufsize=10000 / nal_hrd=vbr / filler=0 / ip_ratio=1.40 / aq=1:1.00
Default : Yes
Forced : No

Audio #1
ID : 2
Format : E-AC-3 JOC
Format/Info : Enhanced AC-3 with Joint Object Coding
Commercial name : Dolby Digital Plus with Dolby Atmos
Codec ID : A_EAC3
Duration : 1 h 38 min
Bit rate mode : Constant
Bit rate : 768 kb/s
Channel(s) : 6 channels
Channel layout : L R C LFE Ls Rs
Sampling rate : 48.0 kHz
Frame rate : 31.250 FPS (1536 SPF)
Compression mode : Lossy
Stream size : 539 MiB (12%)
Title : English [Dolby Digital Plus with Dolby Atmos 5.1]
Language : English
Service kind : Complete Main
Default : Yes
Forced : No
Complexity index : 16
Number of dynamic objects : 15
Bed channel count : 1 channel
Bed channel configuration : LFE

Audio #2
ID : 3
Format : E-AC-3
Format/Info : Enhanced AC-3
Commercial name : Dolby Digital Plus
Codec ID : A_EAC3
Duration : 1 h 38 min
Bit rate mode : Constant
Bit rate : 640 kb/s
Channel(s) : 6 channels
Channel layout : L R C LFE Ls Rs
Sampling rate : 48.0 kHz
Frame rate : 31.250 FPS (1536 SPF)
Compression mode : Lossy
Stream size : 449 MiB (10%)
Title : Chinese (Taiwan) [Dolby Digital Plus 5.1]
Language : Chinese
Service kind : Complete Main
Default : No
Forced : No

Text #1
ID : 4
Format : UTF-8
Codec ID : S_TEXT/UTF8
Codec ID/Info : UTF-8 Plain Text
Duration : 1 h 33 min
Bit rate : 90 b/s
Frame rate : 0.342 FPS
Count of elements : 1912
Stream size : 61.7 KiB (0%)
Title : English [SDH]
Language : English
Default : No
Forced : No

Text #2
ID : 5
Format : UTF-8
Codec ID : S_TEXT/UTF8
Codec ID/Info : UTF-8 Plain Text
Duration : 1 h 32 min
Bit rate : 57 b/s
Frame rate : 0.260 FPS
Count of elements : 1451
Stream size : 39.1 KiB (0%)
Title : 中文(简体)
Language : Chinese
Default : Yes
Forced : No

Text #3
ID : 6
Format : UTF-8
Codec ID : S_TEXT/UTF8
Codec ID/Info : UTF-8 Plain Text
Duration : 1 h 32 min
Bit rate : 58 b/s
Frame rate : 0.273 FPS
Count of elements : 1525
Stream size : 39.6 KiB (0%)
Title : 中文 (繁體)
Language : Chinese
Default : No
Forced : No

Text #4
ID : 7
Format : UTF-8
Codec ID : S_TEXT/UTF8
Codec ID/Info : UTF-8 Plain Text
Duration : 1 h 32 min
Bit rate : 113 b/s
Frame rate : 0.257 FPS
Count of elements : 1433
Stream size : 77.2 KiB (0%)
Title : ???????
Language : Arabic
Default : No
Forced : No

Text #5
ID : 8
Format : UTF-8
Codec ID : S_TEXT/UTF8
Codec ID/Info : UTF-8 Plain Text
Duration : 1 h 32 min
Bit rate : 57 b/s
Frame rate : 0.255 FPS
Count of elements : 1422
Stream size : 39.3 KiB (0%)
Title : Català
Language : Catalan
Default : No
Forced : No

Text #6
ID : 9
Format : UTF-8
Codec ID : S_TEXT/UTF8
Codec ID/Info : UTF-8 Plain Text
Duration : 1 h 32 min
Bit rate : 58 b/s
Frame rate : 0.240 FPS
Count of elements : 1337
Stream size : 39.9 KiB (0%)
Title : ?e?tina
Language : Czech
Default : No
Forced : No

Text #7
ID : 10
Format : UTF-8
Codec ID : S_TEXT/UTF8
Codec ID/Info : UTF-8 Plain Text
Duration : 1 h 32 min
Bit rate : 55 b/s
Frame rate : 0.236 FPS
Count of elements : 1314
Stream size : 37.7 KiB (0%)
Title : Dansk
Language : Danish
Default : No
Forced : No

Text #8
ID : 11
Format : UTF-8
Codec ID : S_TEXT/UTF8
Codec ID/Info : UTF-8 Plain Text
Duration : 1 h 32 min
Bit rate : 64 b/s
Frame rate : 0.231 FPS
Count of elements : 1290
Stream size : 43.6 KiB (0%)
Title : Deutsch
Language : German
Default : No
Forced : No

Text #9
ID : 12
Format : UTF-8
Codec ID : S_TEXT/UTF8
Codec ID/Info : UTF-8 Plain Text
Duration : 1 h 25 min
Bit rate : 103 b/s
Frame rate : 0.269 FPS
Count of elements : 1385
Stream size : 65.4 KiB (0%)
Title : Ελληνικ?
Language : Greek
Default : No
Forced : No

Text #10
ID : 13
Format : UTF-8
Codec ID : S_TEXT/UTF8
Codec ID/Info : UTF-8 Plain Text
Duration : 1 h 25 min
Bit rate : 72 b/s
Frame rate : 0.283 FPS
Count of elements : 1462
Stream size : 45.4 KiB (0%)
Title : Espa?ol
Language : Spanish
Default : No
Forced : No

Text #11
ID : 14
Format : UTF-8
Codec ID : S_TEXT/UTF8
Codec ID/Info : UTF-8 Plain Text
Duration : 1 h 25 min
Bit rate : 71 b/s
Frame rate : 0.225 FPS
Count of elements : 1161
Stream size : 44.9 KiB (0%)
Title : Espa?ol (Espa?a)
Language : Spanish
Default : No
Forced : No

Text #12
ID : 15
Format : UTF-8
Codec ID : S_TEXT/UTF8
Codec ID/Info : UTF-8 Plain Text
Duration : 1 h 32 min
Bit rate : 53 b/s
Frame rate : 0.255 FPS
Count of elements : 1421
Stream size : 36.1 KiB (0%)
Title : Euskara
Language : Basque
Default : No
Forced : No

Text #13
ID : 16
Format : UTF-8
Codec ID : S_TEXT/UTF8
Codec ID/Info : UTF-8 Plain Text
Duration : 1 h 32 min
Bit rate : 52 b/s
Frame rate : 0.227 FPS
Count of elements : 1265
Stream size : 35.9 KiB (0%)
Title : Suomi
Language : Finnish
Default : No
Forced : No

Text #14
ID : 17
Format : UTF-8
Codec ID : S_TEXT/UTF8
Codec ID/Info : UTF-8 Plain Text
Duration : 1 h 32 min
Bit rate : 59 b/s
Frame rate : 0.250 FPS
Count of elements : 1394
Stream size : 40.5 KiB (0%)
Title : Suomi (Israel)
Language : Finnish
Default : No
Forced : No

Text #15
ID : 18
Format : UTF-8
Codec ID : S_TEXT/UTF8
Codec ID/Info : UTF-8 Plain Text
Duration : 1 h 32 min
Bit rate : 79 b/s
Frame rate : 0.261 FPS
Count of elements : 1458
Stream size : 53.9 KiB (0%)
Title : Fran?ais
Language : French
Default : No
Forced : No

Text #16
ID : 19
Format : UTF-8
Codec ID : S_TEXT/UTF8
Codec ID/Info : UTF-8 Plain Text
Duration : 1 h 32 min
Bit rate : 52 b/s
Frame rate : 0.254 FPS
Count of elements : 1416
Stream size : 35.7 KiB (0%)
Title : Galego
Language : Galician
Default : No
Forced : No

Text #17
ID : 20
Format : UTF-8
Codec ID : S_TEXT/UTF8
Codec ID/Info : UTF-8 Plain Text
Duration : 1 h 32 min
Bit rate : 97 b/s
Frame rate : 0.258 FPS
Count of elements : 1440
Stream size : 66.1 KiB (0%)
Title : ?????
Language : Hebrew
Default : No
Forced : No

Text #18
ID : 21
Format : UTF-8
Codec ID : S_TEXT/UTF8
Codec ID/Info : UTF-8 Plain Text
Duration : 1 h 32 min
Bit rate : 55 b/s
Frame rate : 0.253 FPS
Count of elements : 1410
Stream size : 37.5 KiB (0%)
Title : Hrvatski
Language : Croatian
Default : No
Forced : No

Text #19
ID : 22
Format : UTF-8
Codec ID : S_TEXT/UTF8
Codec ID/Info : UTF-8 Plain Text
Duration : 1 h 25 min
Bit rate : 72 b/s
Frame rate : 0.213 FPS
Count of elements : 1101
Stream size : 45.8 KiB (0%)
Title : Magyar
Language : Hungarian
Default : No
Forced : No

Text #20
ID : 23
Format : UTF-8
Codec ID : S_TEXT/UTF8
Codec ID/Info : UTF-8 Plain Text
Duration : 1 h 32 min
Bit rate : 57 b/s
Frame rate : 0.250 FPS
Count of elements : 1394
Stream size : 39.5 KiB (0%)
Title : Bahasa Indonesia
Language : Indonesian
Default : No
Forced : No

Text #21
ID : 24
Format : UTF-8
Codec ID : S_TEXT/UTF8
Codec ID/Info : UTF-8 Plain Text
Duration : 1 h 25 min
Bit rate : 68 b/s
Frame rate : 0.217 FPS
Count of elements : 1116
Stream size : 43.3 KiB (0%)
Title : Italiano
Language : Italian
Default : No
Forced : No

Text #22
ID : 25
Format : UTF-8
Codec ID : S_TEXT/UTF8
Codec ID/Info : UTF-8 Plain Text
Duration : 1 h 25 min
Bit rate : 86 b/s
Frame rate : 0.262 FPS
Count of elements : 1353
Stream size : 54.6 KiB (0%)
Title : 日本語
Language : Japanese
Default : No
Forced : No

Text #23
ID : 26
Format : UTF-8
Codec ID : S_TEXT/UTF8
Codec ID/Info : UTF-8 Plain Text
Duration : 1 h 25 min
Bit rate : 74 b/s
Frame rate : 0.288 FPS
Count of elements : 1486
Stream size : 47.0 KiB (0%)
Title : ???
Language : Korean
Default : No
Forced : No

Text #24
ID : 27
Format : UTF-8
Codec ID : S_TEXT/UTF8
Codec ID/Info : UTF-8 Plain Text
Duration : 1 h 25 min
Bit rate : 66 b/s
Frame rate : 0.223 FPS
Count of elements : 1149
Stream size : 41.7 KiB (0%)
Title : Bahasa Malaysia
Language : Malay
Default : No
Forced : No

Text #25
ID : 28
Format : UTF-8
Codec ID : S_TEXT/UTF8
Codec ID/Info : UTF-8 Plain Text
Duration : 1 h 32 min
Bit rate : 58 b/s
Frame rate : 0.228 FPS
Count of elements : 1273
Stream size : 39.9 KiB (0%)
Title : Norsk Bokm?l
Language : Norwegian Bokmal
Default : No
Forced : No

Text #26
ID : 29
Format : UTF-8
Codec ID : S_TEXT/UTF8
Codec ID/Info : UTF-8 Plain Text
Duration : 1 h 25 min
Bit rate : 79 b/s
Frame rate : 0.231 FPS
Count of elements : 1190
Stream size : 50.1 KiB (0%)
Title : Nederlands
Language : Dutch
Default : No
Forced : No

Text #27
ID : 30
Format : UTF-8
Codec ID : S_TEXT/UTF8
Codec ID/Info : UTF-8 Plain Text
Duration : 1 h 33 min
Bit rate : 55 b/s
Frame rate : 0.240 FPS
Count of elements : 1340
Stream size : 38.1 KiB (0%)
Title : Polski
Language : Polish
Default : No
Forced : No

Text #28
ID : 31
Format : UTF-8
Codec ID : S_TEXT/UTF8
Codec ID/Info : UTF-8 Plain Text
Duration : 1 h 32 min
Bit rate : 59 b/s
Frame rate : 0.249 FPS
Count of elements : 1390
Stream size : 40.8 KiB (0%)
Title : Português
Language : Portuguese
Default : No
Forced : No

Text #29
ID : 32
Format : UTF-8
Codec ID : S_TEXT/UTF8
Codec ID/Info : UTF-8 Plain Text
Duration : 1 h 25 min
Bit rate : 73 b/s
Frame rate : 0.266 FPS
Count of elements : 1374
Stream size : 46.3 KiB (0%)
Title : Português (Brasil)
Language : Portuguese
Default : No
Forced : No

Text #30
ID : 33
Format : UTF-8
Codec ID : S_TEXT/UTF8
Codec ID/Info : UTF-8 Plain Text
Duration : 1 h 32 min
Bit rate : 53 b/s
Frame rate : 0.227 FPS
Count of elements : 1265
Stream size : 36.2 KiB (0%)
Title : Roman?
Language : Romanian
Default : No
Forced : No

Text #31
ID : 34
Format : UTF-8
Codec ID : S_TEXT/UTF8
Codec ID/Info : UTF-8 Plain Text
Duration : 1 h 32 min
Bit rate : 91 b/s
Frame rate : 0.256 FPS
Count of elements : 1429
Stream size : 62.6 KiB (0%)
Title : Русский
Language : Russian
Default : No
Forced : No

Text #32
ID : 35
Format : UTF-8
Codec ID : S_TEXT/UTF8
Codec ID/Info : UTF-8 Plain Text
Duration : 1 h 25 min
Bit rate : 62 b/s
Frame rate : 0.213 FPS
Count of elements : 1100
Stream size : 39.4 KiB (0%)
Title : Svenska
Language : Swedish
Default : No
Forced : No

Text #33
ID : 36
Format : UTF-8
Codec ID : S_TEXT/UTF8
Codec ID/Info : UTF-8 Plain Text
Duration : 1 h 32 min
Bit rate : 156 b/s
Frame rate : 0.260 FPS
Count of elements : 1451
Stream size : 106 KiB (0%)
Title : ???
Language : Thai
Default : No
Forced : No

Text #34
ID : 37
Format : UTF-8
Codec ID : S_TEXT/UTF8
Codec ID/Info : UTF-8 Plain Text
Duration : 1 h 25 min
Bit rate : 69 b/s
Frame rate : 0.220 FPS
Count of elements : 1132
Stream size : 43.9 KiB (0%)
Title : Türk?e
Language : Turkish
Default : No
Forced : No

Text #35
ID : 38
Format : UTF-8
Codec ID : S_TEXT/UTF8
Codec ID/Info : UTF-8 Plain Text
Duration : 1 h 25 min
Bit rate : 104 b/s
Frame rate : 0.210 FPS
Count of elements : 1081
Stream size : 65.8 KiB (0%)
Title : Укра?нська
Language : Ukrainian
Default : No
Forced : No

Text #36
ID : 39
Format : UTF-8
Codec ID : S_TEXT/UTF8
Codec ID/Info : UTF-8 Plain Text
Duration : 1 h 25 min
Bit rate : 100 b/s
Frame rate : 0.227 FPS
Count of elements : 1170
Stream size : 63.6 KiB (0%)
Title : Ti?ng Vi?t
Language : Vietnamese
Default : No
Forced : No

Menu
00:00:00.000 : en:Part 01
01:26:20.000 : en:Credits


部分资源为软字幕,移动端推荐播放器:MxPlayer,nPlayer,infuse ,其他播放器请自行尝试。

部分资源为软字幕,电脑端推荐播放器:PotPlayer,完美解码,KMPLAYER,其他播放器请自行尝试。

下载端推荐纯BT下载软件:qBittorrent,Bitcomet,uTorrent ,其他下载软件请自行尝试。不支持吸血迅雷。



1 个附件 售价 大小 下载 时间

Thelma.the.Unicorn.2024.1080p.NF.WEB-DL.DDP5.1.Atmos.H264-BATWEB[1LOU.ME].torrent 0 金币 13.30K 1099 次 1月前

#1楼
发帖时间:2024-05-18 14:09:08   |   回复数:1
liyouchai
隐世仙人♂
谢谢楼主分享资源
1月前 #2楼
游客组