lvchao9947
一代宗师

[2021] [大陆] [剧情] [WEB-720P] 及格人生[国语配音/中文字幕].Imperfect.Perfect.Life.2021.720p.WEB-DL.H264.AAC-MOMOWEB 0.74GB

-->

完整标题:及格人生[国语配音/中文字幕].Imperfect.Perfect.Life.2021.720p.WEB-DL.H264.AAC-MOMOWEB 0.74GB



◎标  题 及格人生
◎译  名 Imperfect Perfect Life
◎年  代 2021
◎产  地 中国大陆
◎类  别 剧情
◎语  言 汉语普通话
◎上映日期 2022-08-30(中国电影资料馆) / 2021-07(FIRST青年电影展)
◎IMDb链接 https://www.imdb.com/title//
◎豆瓣链接 https://movie.douban.com/subject/34943585/
◎片  长 90分钟
◎导  演 曲江涛 Jiangtao Qu
◎编  剧 曲江涛 Jiangtao Qu
◎演  员 郭晓东 Xiaodong Guo
      王宏伟 Hongwei Wang
      黄璐 Lu Huang
      倪景阳 Jingyang Ni
      张本煜 Benyu Zhang
      柯达 Da Ke

◎简  介
    船员雷孟汉因为欠债无力偿还,走投无路只好答应了前妻照顾她现任高位截瘫的小学校长华成之的请求,事成后将借钱给他偿还债务。在相处的过程中,二人经历重重波折后终于用真心换取了对方的信任,最终经过一系列事件的催化,两人互相帮助,共同成长,在各自人生的最低谷携手重新燃起希望。

点击图片可查看大图

软字幕无法在截图上展现,HDR版本/杜比视界版本截图会出现颜色异常,请使用支持的设备播放!

##### MediaInfo ######
General
Complete name : Imperfect.Perfect.Life.2021.720p.WEB-DL.H264.AAC-MOMOWEB.mp4
Duration : 1 h 30 min
Overall bit rate : 1 177 kb/s

Video
ID : 1
Format : AVC
Format/Info : Advanced Video Codec
Format profile : High@L4
Format settings : CABAC / 3 Ref Frames
Format settings, CABAC : Yes
Format settings, Reference frames : 3 frames
Codec ID : avc1
Codec ID/Info : Advanced Video Coding
Duration : 1 h 30 min
Bit rate : 982 kb/s
Width : 1 920 pixels
Height : 720 pixels
Display aspect ratio : 2.667
Frame rate mode : Variable
Frame rate : 23.848 FPS
Minimum frame rate : 0.121 FPS
Maximum frame rate : 24.000 FPS
Original frame rate : 24.000 FPS
Color space : YUV
Chroma subsampling : 4:2:0
Bit depth : 8 bits
Scan type : Progressive
Bits/(Pixel*Frame) : 0.030
Stream size : 635 MiB (83%)
Color range : Limited
Color primaries : BT.709
Transfer characteristics : BT.709
Matrix coefficients : BT.709
Codec configuration box : avcC

Audio
ID : 2
Format : AAC LC
Format/Info : Advanced Audio Codec Low Complexity
Codec ID : mp4a-40-2
Duration : 1 h 30 min
Bit rate mode : Constant
Bit rate : 192 kb/s
Channel(s) : 2 channels
Channel layout : L R
Sampling rate : 44.1 kHz
Frame rate : 43.066 FPS (1024 SPF)
Compression mode : Lossy
Stream size : 122 MiB (16%)
Default : Yes
Alternate group : 1


部分资源为软字幕,移动端推荐播放器:MxPlayer,nPlayer,infuse ,其他播放器请自行尝试。

部分资源为软字幕,电脑端推荐播放器:PotPlayer,完美解码,KMPLAYER,其他播放器请自行尝试。

下载端推荐纯BT下载软件:qBittorrent,Bitcomet,uTorrent ,其他下载软件请自行尝试。不支持吸血迅雷。



1 个附件 售价 大小 下载 时间

Imperfect.Perfect.Life.2021.720p.WEB-DL.H264.AAC-MOMOWEB[1LOU.ME].torrent 0 金币 4.52K 707 次 1月前

#1楼
发帖时间:2024-05-18 14:09:23   |   回复数:1
jokingcheung
超凡入圣№
谢谢分享
1月前 #2楼
游客组