lvchao9947
一代宗师

[2023] [大陆] [剧情] [WEB-1080P] 摩登澡堂[国语配音/中文字幕].Modern.Bathhouse.2023.1080p.WEB-DL.H264.AAC-MOMOWEB 1.30GB

-->

完整标题:摩登澡堂[国语配音/中文字幕].Modern.Bathhouse.2023.1080p.WEB-DL.H264.AAC-MOMOWEB 1.30GB



◎标  题 摩登澡堂
◎译  名 Rhapsody in Bathhouse / Modern Bathhouse
◎年  代 2023
◎产  地 中国大陆
◎类  别 剧情 / 喜剧
◎语  言 汉语普通话
◎上映日期 2023-09-26(丝绸之路电影节)
◎IMDb链接 https://www.imdb.com/title//
◎豆瓣链接 https://movie.douban.com/subject/35610252/
◎片  长 90分钟
◎导  演 张奕辄 Yizhe Zhang
◎演  员 黄天允 Tianyun Huang
      訾富尔 Fuer Zi
      宋歌 Ge Song
      王双宝 Shuangbao Wang
      李宝安 Baoan Li
      王沛禄 Peilu Wang

◎简  介
    影片藉由一场突如其来的“穿越”展开,现代人郑辉回到过去,遇见年轻时候的父亲。带着父亲修脚工身份的羞耻及现代社会浮躁的气息,让他对这个单纯朴实的年代有些“水土不服”。跨时代人之间的观念冲突也惹出了许多感动与笑料。郑辉和90年代父亲的慢时光之间相互连接,在参与了年轻时父母经历的种种后,让郑辉对于经历了时代变迁的普通人身上仍存的平凡而伟大的梦想有了更深层次的思考,开始走进父亲内心,真正去理解……

点击图片可查看大图

软字幕无法在截图上展现,HDR版本/杜比视界版本截图会出现颜色异常,请使用支持的设备播放!

##### MediaInfo ######
General
Complete name : Modern.Bathhouse.2023.1080p.WEB-DL.H264.AAC-MOMOWEB.mp4
Duration : 1 h 31 min
Overall bit rate mode : Variable
Overall bit rate : 2 023 kb/s

Video
ID : 1
Format : AVC
Format/Info : Advanced Video Codec
Format profile : High@L4
Format settings : CABAC / 3 Ref Frames
Format settings, CABAC : Yes
Format settings, Reference frames : 3 frames
Codec ID : avc1
Codec ID/Info : Advanced Video Coding
Duration : 1 h 31 min
Bit rate : 1 828 kb/s
Width : 1 920 pixels
Height : 800 pixels
Display aspect ratio : 2.40:1
Frame rate mode : Constant
Frame rate : 24.000 FPS
Color space : YUV
Chroma subsampling : 4:2:0
Bit depth : 8 bits
Scan type : Progressive
Bits/(Pixel*Frame) : 0.050
Stream size : 1.17 GiB (90%)
Color range : Limited
Color primaries : BT.709
Transfer characteristics : BT.709
Matrix coefficients : BT.709
Codec configuration box : avcC

Audio
ID : 2
Format : AAC LC
Format/Info : Advanced Audio Codec Low Complexity
Codec ID : mp4a-40-2
Duration : 1 h 31 min
Bit rate mode : Variable
Bit rate : 192 kb/s
Channel(s) : 2 channels
Channel layout : L R
Sampling rate : 44.1 kHz
Frame rate : 43.066 FPS (1024 SPF)
Compression mode : Lossy
Stream size : 124 MiB (9%)
Default : Yes
Alternate group : 1


部分资源为软字幕,移动端推荐播放器:MxPlayer,nPlayer,infuse ,其他播放器请自行尝试。

部分资源为软字幕,电脑端推荐播放器:PotPlayer,完美解码,KMPLAYER,其他播放器请自行尝试。

下载端推荐纯BT下载软件:qBittorrent,Bitcomet,uTorrent ,其他下载软件请自行尝试。不支持吸血迅雷。



1 个附件 售价 大小 下载 时间

Modern.Bathhouse.2023.1080p.WEB-DL.H264.AAC-MOMOWEB[1LOU.ME].torrent 0 金币 5.90K 658 次 1月前

#1楼
发帖时间:2024-05-18 14:09:38   |   回复数:0
游客组