lvchao9947
一代宗师

[2024] [大陆] [剧情] [WEB-1080P] 新龙门客栈之英雄觉醒[国语配音/中文字幕].New.Dragon.Gate.Inn.2024.1080p.WEB-DL.H264.AAC-MOMOWEB 1.2

-->

完整标题:新龙门客栈之英雄觉醒[国语配音/中文字幕].New.Dragon.Gate.Inn.2024.1080p.WEB-DL.H264.AAC-MOMOWEB 1.28GB



◎标  题 新龙门客栈之英雄觉醒
◎年  代 2024
◎产  地 中国大陆
◎类  别 剧情 / 武侠 / 古装
◎语  言 汉语普通话
◎上映日期 2024-05-17(中国大陆网络)
◎IMDb链接 https://www.imdb.com/title//
◎豆瓣链接 https://movie.douban.com/subject/36844754/

◎简  介
    明朝中叶,宦官专政,民不聊生。 因一份神秘圣旨,东海将领周淮安护孤女曲灵来到龙门岛上的龙门客栈,等待中元节奉旨交人。 龙门客栈中,江湖际会,暗流涌动。东西两厂轮番上阵,掌柜金镶玉百般试探,刺客邱莫言从中搅局,周淮安深感此行目的愈发扑朔迷离。 中元节将至,龙门岛世代血咒惊现仙药之迷,东厂冯督主为谋得仙药杀害曲灵。 周淮安为家族荣耀顺从野心勃勃冯督主还是秉持内心正义奋起反抗? 一场正义与邪恶的生死较量就此展开。

点击图片可查看大图

软字幕无法在截图上展现,HDR版本/杜比视界版本截图会出现颜色异常,请使用支持的设备播放!

##### MediaInfo ######
General
Complete name : New.Dragon.Gate.Inn.2024.1080p.WEB-DL.H264.AAC-MOMOWEB.mp4
Duration : 1 h 24 min
Overall bit rate : 2 152 kb/s

Video
ID : 1
Format : AVC
Format/Info : Advanced Video Codec
Format profile : High@L4
Format settings : CABAC / 3 Ref Frames
Format settings, CABAC : Yes
Format settings, Reference frames : 3 frames
Codec ID : avc1
Codec ID/Info : Advanced Video Coding
Duration : 1 h 24 min
Bit rate : 1 956 kb/s
Width : 1 920 pixels
Height : 800 pixels
Display aspect ratio : 2.40:1
Frame rate mode : Constant
Frame rate : 24.000 FPS
Color space : YUV
Chroma subsampling : 4:2:0
Bit depth : 8 bits
Scan type : Progressive
Bits/(Pixel*Frame) : 0.053
Stream size : 1.16 GiB (91%)
Color range : Limited
Color primaries : BT.709
Transfer characteristics : BT.709
Matrix coefficients : BT.709
Codec configuration box : avcC

Audio
ID : 2
Format : AAC LC
Format/Info : Advanced Audio Codec Low Complexity
Codec ID : mp4a-40-2
Duration : 1 h 24 min
Bit rate mode : Constant
Bit rate : 192 kb/s
Channel(s) : 2 channels
Channel layout : L R
Sampling rate : 44.1 kHz
Frame rate : 43.066 FPS (1024 SPF)
Compression mode : Lossy
Stream size : 115 MiB (9%)
Default : Yes
Alternate group : 1


部分资源为软字幕,移动端推荐播放器:MxPlayer,nPlayer,infuse ,其他播放器请自行尝试。

部分资源为软字幕,电脑端推荐播放器:PotPlayer,完美解码,KMPLAYER,其他播放器请自行尝试。

下载端推荐纯BT下载软件:qBittorrent,Bitcomet,uTorrent ,其他下载软件请自行尝试。不支持吸血迅雷。



1 个附件 售价 大小 下载 时间

New.Dragon.Gate.Inn.2024.1080p.WEB-DL.H264.AAC-MOMOWEB[1LOU.ME].torrent 0 金币 5.86K 924 次 1月前

#1楼
发帖时间:2024-05-18 14:10:08   |   回复数:0
游客组