lvchao9947
一代宗师

[2022] [大陆] [剧情] [WEB-1080P] 行运舞狮队[国语配音/中文字幕].The.Mid-Autumn.Festival.2022.1080p.WEB-DL.H264.AAC-MOMOWEB 1.18

-->

完整标题:行运舞狮队[国语配音/中文字幕].The.Mid-Autumn.Festival.2022.1080p.WEB-DL.H264.AAC-MOMOWEB 1.18GB



◎标  题 行运舞狮队
◎译  名 The Mid-Autumn Festival
◎年  代 2022
◎产  地 中国大陆
◎类  别 剧情 / 喜剧
◎语  言 汉语普通话 / 粤语
◎上映日期 2022-07-30(FIRST青年电影展)
◎IMDb链接 https://www.imdb.com/title//
◎豆瓣链接 https://movie.douban.com/subject/35956151/
◎片  长 85分钟
◎导  演 安佳星 Jiaxing An
◎编  剧 刘朔 Shuo Liu
◎演  员 罗康 Kang Luo
      黄一飞 Yut Fei Wong
      李世鹏 Shipeng Li

◎简  介
    《行运舞狮队》用一支业余舞狮队的奋斗,展现岭南农村的传统与现代之辩。

点击图片可查看大图

软字幕无法在截图上展现,HDR版本/杜比视界版本截图会出现颜色异常,请使用支持的设备播放!

##### MediaInfo ######
General
Complete name : The.Mid-Autumn.Festival.2022.1080p.WEB-DL.H264.AAC-MOMOWEB.mp4
Duration : 1 h 25 min
Overall bit rate mode : Variable
Overall bit rate : 1 972 kb/s

Video
ID : 1
Format : AVC
Format/Info : Advanced Video Codec
Format profile : High@L4
Format settings : CABAC / 3 Ref Frames
Format settings, CABAC : Yes
Format settings, Reference frames : 3 frames
Codec ID : avc1
Codec ID/Info : Advanced Video Coding
Duration : 1 h 25 min
Bit rate : 1 776 kb/s
Width : 1 920 pixels
Height : 808 pixels
Display aspect ratio : 2.40:1
Frame rate mode : Constant
Frame rate : 25.000 FPS
Color space : YUV
Chroma subsampling : 4:2:0
Bit depth : 8 bits
Scan type : Progressive
Bits/(Pixel*Frame) : 0.046
Stream size : 1.06 GiB (90%)
Color range : Limited
Color primaries : BT.709
Transfer characteristics : BT.709
Matrix coefficients : BT.709
Codec configuration box : avcC

Audio
ID : 2
Format : AAC LC
Format/Info : Advanced Audio Codec Low Complexity
Codec ID : mp4a-40-2
Duration : 1 h 25 min
Bit rate mode : Variable
Bit rate : 192 kb/s
Channel(s) : 2 channels
Channel layout : L R
Sampling rate : 44.1 kHz
Frame rate : 43.066 FPS (1024 SPF)
Compression mode : Lossy
Stream size : 116 MiB (10%)
Default : Yes
Alternate group : 1


部分资源为软字幕,移动端推荐播放器:MxPlayer,nPlayer,infuse ,其他播放器请自行尝试。

部分资源为软字幕,电脑端推荐播放器:PotPlayer,完美解码,KMPLAYER,其他播放器请自行尝试。

下载端推荐纯BT下载软件:qBittorrent,Bitcomet,uTorrent ,其他下载软件请自行尝试。不支持吸血迅雷。



1 个附件 售价 大小 下载 时间

The.Mid-Autumn.Festival.2022.1080p.WEB-DL.H264.AAC-MOMOWEB[1LOU.ME].torrent 0 金币 5.60K 651 次 1月前

#1楼
发帖时间:2024-05-18 14:10:52   |   回复数:0
游客组