lvchao9947
一代宗师

[2024] [大陆] [爱情] [WEB-1080P] 金牌河东狮吼[国语配音/中文字幕].Forever.the.Lioness.Roars.2024.1080p.WEB-DL.H264.AAC-MOMOWEB 1

-->

完整标题:金牌河东狮吼[国语配音/中文字幕].Forever.the.Lioness.Roars.2024.1080p.WEB-DL.H264.AAC-MOMOWEB 1.20GB



◎标  题 金牌河东狮吼
◎年  代 2024
◎产  地 中国大陆
◎类  别 爱情 / 奇幻 / 古装
◎语  言 汉语普通话
◎上映日期 2024-05-18(中国大陆网络)
◎IMDb链接 https://www.imdb.com/title//
◎豆瓣链接 https://movie.douban.com/subject/35460370/
◎编  剧 马伟豪 Joe Ma
◎演  员 吴佩柔 Peirou Wu
      索笑坤 Xiaokun Suo

◎简  介
    经典IP魔改升级,人、妖两界不共戴天,程季常,李月娥神仙眷侣再现江湖。看二人如何抗宿命,斩心魔,闯情关,东方魔幻版为爱狮吼一触即发!

点击图片可查看大图

软字幕无法在截图上展现,HDR版本/杜比视界版本截图会出现颜色异常,请使用支持的设备播放!

##### MediaInfo ######
General
Complete name : Forever.the.Lioness.Roars.2024.1080p.WEB-DL.H264.AAC-MOMOWEB.mp4
Duration : 1 h 20 min
Overall bit rate mode : Variable
Overall bit rate : 2 138 kb/s

Video
ID : 1
Format : AVC
Format/Info : Advanced Video Codec
Format profile : High@L4
Format settings : CABAC / 3 Ref Frames
Format settings, CABAC : Yes
Format settings, Reference frames : 3 frames
Codec ID : avc1
Codec ID/Info : Advanced Video Coding
Duration : 1 h 20 min
Bit rate : 1 942 kb/s
Width : 1 920 pixels
Height : 816 pixels
Display aspect ratio : 2.35:1
Frame rate mode : Constant
Frame rate : 25.000 FPS
Color space : YUV
Chroma subsampling : 4:2:0
Bit depth : 8 bits
Scan type : Progressive
Bits/(Pixel*Frame) : 0.050
Stream size : 1.09 GiB (91%)
Color range : Limited
Color primaries : BT.709
Transfer characteristics : BT.709
Matrix coefficients : BT.709
Codec configuration box : avcC

Audio
ID : 2
Format : AAC LC
Format/Info : Advanced Audio Codec Low Complexity
Codec ID : mp4a-40-2
Duration : 1 h 20 min
Bit rate mode : Variable
Bit rate : 192 kb/s
Maximum bit rate : 195 kb/s
Channel(s) : 2 channels
Channel layout : L R
Sampling rate : 44.1 kHz
Frame rate : 43.066 FPS (1024 SPF)
Compression mode : Lossy
Stream size : 109 MiB (9%)
Default : Yes
Alternate group : 1


部分资源为软字幕,移动端推荐播放器:MxPlayer,nPlayer,infuse ,其他播放器请自行尝试。

部分资源为软字幕,电脑端推荐播放器:PotPlayer,完美解码,KMPLAYER,其他播放器请自行尝试。

下载端推荐纯BT下载软件:qBittorrent,Bitcomet,uTorrent ,其他下载软件请自行尝试。不支持吸血迅雷。



1 个附件 售价 大小 下载 时间

Forever.the.Lioness.Roars.2024.1080p.WEB-DL.H264.AAC-MOMOWEB[1LOU.ME].torrent 0 金币 5.67K 693 次 1月前

#1楼
发帖时间:2024-05-18 14:11:06   |   回复数:0
游客组