lvchao9947
一代宗师

[2024] [大陆] [喜剧] [WEB-1080P] 麦客[国语配音/中文字幕].Wheat.Guest.2024.1080p.WEB-DL.H264.AAC-MOMOWEB 1.58GB

-->

完整标题:麦客[国语配音/中文字幕].Wheat.Guest.2024.1080p.WEB-DL.H264.AAC-MOMOWEB 1.58GB



◎标  题 麦客
◎年  代 2024
◎产  地 中国大陆
◎类  别 喜剧 / 动作
◎语  言 汉语普通话
◎上映日期 2024-04-16(中国大陆)
◎IMDb链接 https://www.imdb.com/title//
◎豆瓣链接 https://movie.douban.com/subject/36857951/

◎简  介
    民国时期,关中乾州地区时局动荡,黑恶势力鱼肉百姓,猖獗于众。为了改变长期遭受蹂躏压迫的局面,神医李道安与有志之士苏青云想团结老百姓起来反抗,但却拿不出来有效的解决方案。女主杨春丽留学归来,思想先进,洞若观火。男主(麦客)彦碧虽然武功高强,但也只想解决温饱。然而在杨春丽的感染指点下彦碧开始有了思想,想为社会做出自己的贡献。最后在李道安,苏青云和女主杨春丽,男主彦碧两代人的共同努力下,老百姓团结一致,最终战胜了黑暗。

点击图片可查看大图

软字幕无法在截图上展现,HDR版本/杜比视界版本截图会出现颜色异常,请使用支持的设备播放!

##### MediaInfo ######
General
Complete name : Wheat.Guest.2024.1080p.WEB-DL.H264.AAC-MOMOWEB.mp4
Duration : 2 h 2 min
Overall bit rate mode : Variable
Overall bit rate : 1 842 kb/s

Video
ID : 1
Format : AVC
Format/Info : Advanced Video Codec
Format profile : High@L4
Format settings : CABAC / 3 Ref Frames
Format settings, CABAC : Yes
Format settings, Reference frames : 3 frames
Codec ID : avc1
Codec ID/Info : Advanced Video Coding
Duration : 2 h 2 min
Bit rate : 1 646 kb/s
Width : 1 920 pixels
Height : 816 pixels
Display aspect ratio : 2.35:1
Frame rate mode : Constant
Frame rate : 25.000 FPS
Color space : YUV
Chroma subsampling : 4:2:0
Bit depth : 8 bits
Scan type : Progressive
Bits/(Pixel*Frame) : 0.042
Stream size : 1.41 GiB (89%)
Color range : Limited
Color primaries : BT.709
Transfer characteristics : BT.709
Matrix coefficients : BT.709
Codec configuration box : avcC

Audio
ID : 2
Format : AAC LC
Format/Info : Advanced Audio Codec Low Complexity
Codec ID : mp4a-40-2
Duration : 2 h 2 min
Bit rate mode : Variable
Bit rate : 192 kb/s
Maximum bit rate : 196 kb/s
Channel(s) : 2 channels
Channel layout : L R
Sampling rate : 44.1 kHz
Frame rate : 43.066 FPS (1024 SPF)
Compression mode : Lossy
Stream size : 167 MiB (10%)
Default : Yes
Alternate group : 1


部分资源为软字幕,移动端推荐播放器:MxPlayer,nPlayer,infuse ,其他播放器请自行尝试。

部分资源为软字幕,电脑端推荐播放器:PotPlayer,完美解码,KMPLAYER,其他播放器请自行尝试。

下载端推荐纯BT下载软件:qBittorrent,Bitcomet,uTorrent ,其他下载软件请自行尝试。不支持吸血迅雷。



1 个附件 售价 大小 下载 时间

Wheat.Guest.2024.1080p.WEB-DL.H264.AAC-MOMOWEB[1LOU.ME].torrent 0 金币 6.58K 945 次 1月前

#1楼
发帖时间:2024-05-18 14:11:36   |   回复数:0
游客组