lvchao9947
一代宗师

[2022] [其它] [剧情] [BD-1080P] 敲[中文字幕].Koputus.2022.BluRay.1080p.DTS-HDMA5.1.x264-DreamHD 6.06GB

-->

完整标题:敲[中文字幕].Koputus.2022.BluRay.1080p.DTS-HDMA5.1.x264-DreamHD 6.06GB



◎标  题 敲
◎译  名 The Knocking
◎片  名 Koputus
◎年  代 2022
◎产  地 芬兰
◎类  别 剧情 / 恐怖 / 犯罪
◎语  言 芬兰语 / 瑞典语
◎上映日期 2022-10-09(锡切斯电影节) / 2023-02-22(芬兰)
◎IMDb评分 5.2/10 (827人评价)
◎IMDb链接 https://www.imdb.com/title/tt12851130/
◎豆瓣评分 4.6/10 (113人评价)
◎豆瓣链接 https://movie.douban.com/subject/36114467/
◎片  长 87分钟
◎演  员 佩卡·斯特朗 Pekka Strang
      因卡·卡伦 Inka Kallén
      萨娜·科伊维斯托 Saana Koivisto
      米科·莱皮兰皮 Mikko Leppilampi
      Olga Temonen Olga Temonen
      雅尼娜·伯曼 Janina Berman
      Niko Saarela Niko Saarela

◎简  介
    Three adult siblings go examine their late parents' house in the middle of the forest.

##### MediaInfo ######
General
Unique ID : 320634547229103655359253712438686010266 (0xF137F7B2C1A8A4DC779B01B4CE964B9A)
Complete name : Koputus.2022.BluRay.1080p.DTS-HDMA5.1.x264-DreamHD.mkv
Duration : 1 h 29 min
Overall bit rate mode : Variable
Overall bit rate : 9 711 kb/s

Video
ID : 1
Format : AVC
Format/Info : Advanced Video Codec
Format profile : [email protected]
Format settings : CABAC / 5 Ref Frames
Format settings, CABAC : Yes
Format settings, Reference frames : 5 frames
Codec ID : V_MPEG4/ISO/AVC
Duration : 1 h 29 min
Bit rate : 7 798 kb/s
Width : 1 920 pixels
Height : 804 pixels
Display aspect ratio : 2.40:1
Frame rate mode : Constant
Frame rate : 24.000 FPS
Color space : YUV
Chroma subsampling : 4:2:0
Bit depth : 8 bits
Scan type : Progressive
Bits/(Pixel*Frame) : 0.210
Stream size : 4.86 GiB (80%)
Writing library : x264 core 164 r3094 bfc87b7
Encoding settings : cabac=1 / ref=5 / deblock=1:-3:-3 / analyse=0x3:0x133 / me=umh / subme=11 / psy=1 / psy_rd=1.00:0.00 / mixed_ref=1 / me_range=64 / chroma_me=1 / trellis=2 / 8x8dct=1 / cqm=0 / deadzone=21,11 / fast_pskip=0 / chroma_qp_offset=-2 / threads=24 / lookahead_threads=6 / sliced_threads=0 / nr=0 / decimate=0 / interlaced=0 / bluray_compat=0 / constrained_intra=0 / bframes=12 / b_pyramid=2 / b_adapt=2 / b_bias=0 / direct=3 / weightb=1 / open_gop=0 / weightp=2 / keyint=250 / keyint_min=24 / scenecut=40 / intra_refresh=0 / rc=crf / mbtree=0 / crf=16.0 / qcomp=0.70 / qpmin=0 / qpmax=69 / qpstep=4 / ip_ratio=1.30 / pb_ratio=1.20 / aq=3:0.80
Default : Yes
Forced : No
Color range : Limited
Color primaries : BT.709
Matrix coefficients : BT.709

Audio
ID : 2
ID in the original source medium : 4352 (0x1100)
Format : DTS XLL
Format/Info : Digital Theater Systems
Commercial name : DTS-HD Master Audio
Codec ID : A_DTS
Duration : 1 h 29 min
Bit rate mode : Variable
Bit rate : 1 870 kb/s
Channel(s) : 6 channels
Channel layout : C L R Ls Rs LFE
Sampling rate : 48.0 kHz
Frame rate : 93.750 FPS (512 SPF)
Bit depth : 16 bits
Compression mode : Lossless
Stream size : 1.16 GiB (19%)
Language : German
Default : Yes
Forced : No
Original source medium : Blu-ray

Text #1
ID : 3
ID in the original source medium : 4609 (0x1201)
Format : PGS
Codec ID : S_HDMV/PGS
Codec ID/Info : Picture based subtitle format used on BDs/HD-DVDs
Duration : 1 h 24 min
Bit rate : 16.9 kb/s
Frame rate : 0.208 FPS
Count of elements : 1054
Stream size : 10.2 MiB (0%)
Language : German
Default : No
Forced : No
Original source medium : Blu-ray

Text #2
ID : 4
ID in the original source medium : 4610 (0x1202)
Format : PGS
Codec ID : S_HDMV/PGS
Codec ID/Info : Picture based subtitle format used on BDs/HD-DVDs
Duration : 1 h 24 min
Bit rate : 11.9 kb/s
Frame rate : 0.196 FPS
Count of elements : 993
Stream size : 7.21 MiB (0%)
Title : CHS
Language : Chinese
Default : No
Forced : No
Original source medium : Blu-ray

Text #3
ID : 5
ID in the original source medium : 4611 (0x1203)
Format : PGS
Codec ID : S_HDMV/PGS
Codec ID/Info : Picture based subtitle format used on BDs/HD-DVDs
Duration : 1 h 24 min
Bit rate : 13.2 kb/s
Frame rate : 0.196 FPS
Count of elements : 993
Stream size : 7.98 MiB (0%)
Title : CHT
Language : Chinese
Default : No
Forced : No
Original source medium : Blu-ray

Menu
00:00:00.000 : en:Chapter 01
00:07:43.000 : en:Chapter 02
00:14:00.208 : en:Chapter 03
00:22:08.416 : en:Chapter 04
00:29:22.583 : en:Chapter 05
00:35:20.333 : en:Chapter 06
00:41:19.250 : en:Chapter 07
00:48:12.541 : en:Chapter 08
00:55:17.333 : en:Chapter 09
01:03:20.041 : en:Chapter 10
01:09:35.875 : en:Chapter 11
01:16:35.791 : en:Chapter 12
01:24:18.500 : en:Chapter 13
01:29:08.875 : en:Chapter 14


部分资源为软字幕,移动端推荐播放器:MxPlayer,nPlayer,infuse ,其他播放器请自行尝试。

部分资源为软字幕,电脑端推荐播放器:PotPlayer,完美解码,KMPLAYER,其他播放器请自行尝试。

下载端推荐纯BT下载软件:qBittorrent,Bitcomet,uTorrent ,其他下载软件请自行尝试。不支持吸血迅雷。



1 个附件 售价 大小 下载 时间

Koputus.2022.BluRay.1080p.DTS-HDMA5.1.x264-DreamHD[1LOU.ME].torrent 0 金币 17.85K 812 次 26天前

#1楼
发帖时间:2024-05-18 19:17:08   |   回复数:0
游客组