lvchao9947
一代宗师

[2016] [欧美] [剧情] [WEB-4K] 萨利机长[国英多音轨/简繁英双语特效字幕].Sully.2016.V1.BluRay.2160p.TrueHD7.1.HDR.x265.10bit-DreamH

-->

完整标题:萨利机长[国英多音轨/简繁英双语特效字幕].Sully.2016.V1.BluRay.2160p.TrueHD7.1.HDR.x265.10bit-DreamHD 16.90GB



◎标  题 萨利机长
◎译  名 萨利机长:迫降奇迹(港) / 萨利机长:哈德逊奇迹(台) / 哈德逊河奇迹 / 萨利
◎片  名 Sully
◎年  代 2016
◎产  地 美国
◎类  别 剧情 / 传记
◎语  言 英语
◎上映日期 2016-12-09(中国大陆) / 2016-09-09(美国)
◎IMDb评分 7.4/10 (292609人评价)
◎IMDb链接 https://www.imdb.com/title/tt3263904/
◎豆瓣评分 8.3/10 (352817人评价)
◎豆瓣链接 https://movie.douban.com/subject/26416603/
◎片  长 96分钟
◎导  演 克林特·伊斯特伍德 Clint Eastwood
◎编  剧 托德·考马尔尼基 Todd Komarnicki
      切斯利·舒伦伯格 Chesley Sullenberger
      杰弗里·札斯洛 Jeffrey Zaslow
◎演  员 汤姆·汉克斯 Tom Hanks
      艾伦·艾克哈特 Aaron Eckhart
      劳拉·琳妮 Laura Linney
      杰瑞·费拉拉 Jerry Ferrara
      安娜·冈 Anna Gunn
      奥图姆·瑞瑟 Autumn Reeser
      霍特·麦克卡兰尼 Holt McCallany
      克里斯·鲍尔 Chris Bauer
      杰米·谢尔丹 Jamey Sheridan
      安·库萨克 Ann Cusack
      莫莉·哈根 Molly Hagan
      马克斯·阿德勒 Max Adler
      萨姆·亨廷顿 Sam Huntington
      韦恩·巴斯楚普 Wayne Bastrup
      维勒莉·玛哈菲 Valerie Mahaffey
      凯蒂·柯丽克 Katie Couric
      杰夫·科伯 Jeff Kober
      莫莉·伯纳德 Molly Bernard
      库珀·索恩顿 Cooper Thornton
      维布尔·弗利茨杰拉德 Wilbur Fitzgerald
      杰弗里·诺灵 Jeffrey Nordling
      帕奇·德拉奇 Patch Darragh
      布雷特·赖斯 Brett Rice
      E·罗杰·米切尔 E. Roger Mitchell
      罗伯特·普拉尔戈 Robert Pralgo
      迈克尔·拉帕波特 Michael Rapaport
      普鲁瓦·贝迪 Purva Bedi
      克里斯托弗·柯里 Christopher Curry
      因德尔·库马尔 Inder Kumar
      加里·维克斯 Gary Weeks
      特雷西·齐默 Tracee Chimo
      迈克·奥麦利 Mike O'Malley

◎简  介
    影片根据真实事件改编,2009年1月15日,萨利(汤姆·汉克斯 Tom Hanks 饰)在全美航空1549号班担任机长,飞机起飞两分钟后遭到飞鸟攻击,两架发动机全部熄火,萨利决定在哈德逊河上迫降,155人全数生还。但之后的调查显示他做了错误的抉择,认为大可选择返回拉瓜地亚机场。机内到底发生了什么呢?

##### MediaInfo ######
General
Unique ID : 102823557362176603342610775283784127693 (0x4D5B18C89ECE9F0A91E33BA9760294CD)
Complete name : Sully.2016.V1.BluRay.2160p.TrueHD7.1.HDR.x265.10bit-DreamHD.mkv
Duration : 1 h 35 min
Overall bit rate mode : Variable
Overall bit rate : 25.2 Mb/s

Video
ID : 1
Format : HEVC
Format/Info : High Efficiency Video Coding
Format profile : Main 10@L5@Main
HDR format : SMPTE ST 2086, HDR10 compatible
Codec ID : V_MPEGH/ISO/HEVC
Duration : 1 h 35 min
Bit rate : 14.6 Mb/s
Width : 3 840 pixels
Height : 1 600 pixels
Display aspect ratio : 2.40:1
Frame rate mode : Constant
Frame rate : 23.976 (24000/1001) FPS
Color space : YUV
Chroma subsampling : 4:2:0 (Type 2)
Bit depth : 10 bits
Bits/(Pixel*Frame) : 0.099
Stream size : 9.80 GiB (58%)
Title : 9b653fb6f3ad392fdd1ee9c4c4903a80b0ef8215e1e1a21a202badd568f8d2b6765f324d2742c4c9b33a0798792d78b2d1d8f1cbccd3f80e8d16a62aeeb328ff
Writing library : x265 3.5f0c1022b6:[Windows][GCC 13.2.0][64 bit] 10bit
Encoding settings : cpuid=1111039 / frame-threads=4 / numa-pools=16 / wpp / no-pmode / no-pme / no-psnr / no-ssim / log-level=2 / input-csp=1 / input-res=3840x1600 / interlace=0 / total-frames=0 / level-idc=50 / high-tier=1 / uhd-bd=0 / ref=4 / no-allow-non-conformance / repeat-headers / annexb / no-aud / no-eob / no-eos / no-hrd / info / hash=0 / temporal-layers=0 / open-gop / min-keyint=24 / keyint=240 / gop-lookahead=0 / bframes=4 / b-adapt=2 / b-pyramid / bframe-bias=0 / rc-lookahead=25 / lookahead-slices=4 / scenecut=40 / no-hist-scenecut / radl=0 / no-splice / no-intra-refresh / ctu=64 / min-cu-size=8 / rect / no-amp / max-tu-size=32 / tu-inter-depth=1 / tu-intra-depth=1 / limit-tu=0 / rdoq-level=2 / dynamic-rd=0.00 / no-ssim-rd / signhide / no-tskip / nr-intra=0 / nr-inter=0 / no-constrained-intra / strong-intra-smoothing / max-merge=3 / limit-refs=3 / limit-modes / me=3 / subme=3 / merange=57 / temporal-mvp / no-frame-dup / no-hme / weightp / no-weightb / no-analyze-src-pics / deblock=0:0 / sao / no-sao-non-deblock / rd=4 / selective-sao=4 / no-early-skip / rskip / no-fast-intra / no-tskip-fast / no-cu-lossless / no-b-intra / no-splitrd-skip / rdpenalty=0 / psy-rd=2.00 / psy-rdoq=1.00 / no-rd-refine / no-lossless / cbqpoffs=0 / crqpoffs=0 / rc=abr / bitrate=15568 / qcomp=0.60 / qpstep=4 / stats-write=0 / stats-read=0 / ipratio=1.40 / pbratio=1.30 / aq-mode=2 / aq-strength=1.00 / cutree / zone-count=0 / no-strict-cbr / qg-size=32 / no-rc-grain / qpmax=69 / qpmin=0 / no-const-vbv / sar=1 / overscan=0 / videoformat=5 / range=0 / colorprim=9 / transfer=16 / colormatrix=9 / chromaloc=1 / chromaloc-top=2 / chromaloc-bottom=2 / display-window=0 / master-display=G(13250,34500)B(7500,3000)R(34000,16000)WP(15635,16450)L(40000000,50) / cll=4000,290 / min-luma=0 / max-luma=1023 / log2-max-poc-lsb=8 / vui-timing-info / vui-hrd-info / slices=1 / no-opt-qp-pps / no-opt-ref-list-length-pps / no-multi-pass-opt-rps / scenecut-bias=0.05 / no-opt-cu-delta-qp / no-aq-motion / hdr10 / hdr10-opt / no-dhdr10-opt / no-idr-recovery-sei / analysis-reuse-level=0 / analysis-save-reuse-level=0 / analysis-load-reuse-level=0 / scale-factor=0 / refine-intra=0 / refine-inter=0 / refine-mv=1 / refine-ctu-distortion=0 / no-limit-sao / ctu-info=0 / no-lowpass-dct / refine-analysis-type=0 / copy-pic=1 / max-ausize-factor=1.0 / no-dynamic-refine / no-single-sei / no-hevc-aq / no-svt / no-field / qp-adaptation-range=1.00 / scenecut-aware-qp=0conformance-window-offsets / right=0 / bottom=0 / decoder-max-rate=0 / no-vbv-live-multi-pass / no-mcstf / no-sbrc
Default : Yes
Forced : No
Color range : Limited
Color primaries : BT.2020
Transfer characteristics : PQ
Matrix coefficients : BT.2020 non-constant
Mastering display color primaries : Display P3
Mastering display luminance : min: 0.0050 cd/m2, max: 4000 cd/m2
Maximum Content Light Level : 4000
MaxCLL_Original : 4000 cd/m2
Maximum Frame-Average Light Level : 290
MaxFALL_Original : 290 cd/m2

Audio #1
ID : 2
Format : MLP FBA 16-ch
Format/Info : Meridian Lossless Packing FBA with 16-channel presentation
Commercial name : Dolby TrueHD with Dolby Atmos
Codec ID : A_TRUEHD
Duration : 1 h 35 min
Bit rate mode : Variable
Bit rate : 6 798 kb/s
Maximum bit rate : 12.0 Mb/s
Channel(s) : 8 channels
Channel layout : L R C LFE Ls Rs Lb Rb
Sampling rate : 48.0 kHz
Frame rate : 1 200.000 FPS (40 SPF)
Compression mode : Lossless
Stream size : 4.55 GiB (27%)
Title : Surround
Language : English
Default : Yes
Forced : No
Number of dynamic objects : 11
Bed channel count : 1 channel
Bed channel configuration : LFE

Audio #2
ID : 3
Format : AC-3
Format/Info : Audio Coding 3
Commercial name : Dolby Digital
Codec ID : A_AC3
Duration : 1 h 35 min
Bit rate mode : Constant
Bit rate : 640 kb/s
Channel(s) : 6 channels
Channel layout : L R C LFE Ls Rs
Sampling rate : 48.0 kHz
Frame rate : 31.250 FPS (1536 SPF)
Compression mode : Lossy
Stream size : 439 MiB (3%)
Title : Surround
Language : English
Service kind : Complete Main
Default : No
Forced : No

Audio #3
ID : 4
Format : DTS XLL
Format/Info : Digital Theater Systems
Commercial name : DTS-HD Master Audio
Codec ID : A_DTS
Duration : 1 h 35 min
Bit rate mode : Variable
Bit rate : 2 322 kb/s
Channel(s) : 8 channels
Channel layout : C L R LFE Lb Rb Lss Rss
Sampling rate : 48.0 kHz
Frame rate : 93.750 FPS (512 SPF)
Bit depth : 16 bits
Compression mode : Lossless
Stream size : 1.55 GiB (9%)
Title : 重混公映次世代国语
Language : Chinese
Default : No
Forced : No

Text #1
ID : 5
Format : PGS
Codec ID : S_HDMV/PGS
Codec ID/Info : Picture based subtitle format used on BDs/HD-DVDs
Duration : 1 h 35 min
Bit rate : 45.6 kb/s
Frame rate : 0.572 FPS
Count of elements : 3284
Stream size : 31.2 MiB (0%)
Language : English
Default : No
Forced : No

Text #2
ID : 6
Format : PGS
Codec ID : S_HDMV/PGS
Codec ID/Info : Picture based subtitle format used on BDs/HD-DVDs
Duration : 1 h 35 min
Bit rate : 48.4 kb/s
Frame rate : 0.572 FPS
Count of elements : 3284
Stream size : 33.1 MiB (0%)
Language : English
Default : No
Forced : No

Text #3
ID : 7
Format : PGS
Codec ID : S_HDMV/PGS
Codec ID/Info : Picture based subtitle format used on BDs/HD-DVDs
Duration : 1 h 35 min
Bit rate : 33.3 kb/s
Frame rate : 0.473 FPS
Count of elements : 2716
Stream size : 22.8 MiB (0%)
Language : French
Default : No
Forced : No

Text #4
ID : 8
Format : PGS
Codec ID : S_HDMV/PGS
Codec ID/Info : Picture based subtitle format used on BDs/HD-DVDs
Duration : 1 h 35 min
Bit rate : 41.5 kb/s
Frame rate : 0.520 FPS
Count of elements : 2988
Stream size : 28.4 MiB (0%)
Title : 台式繁体
Language : Chinese
Default : No
Forced : No

Text #5
ID : 9
Format : PGS
Codec ID : S_HDMV/PGS
Codec ID/Info : Picture based subtitle format used on BDs/HD-DVDs
Duration : 1 h 31 min
Bit rate : 31.2 kb/s
Frame rate : 0.559 FPS
Count of elements : 3081
Stream size : 20.5 MiB (0%)
Title : 国配简体中文
Language : Chinese
Default : No
Forced : No

Text #6
ID : 10
Format : PGS
Codec ID : S_HDMV/PGS
Codec ID/Info : Picture based subtitle format used on BDs/HD-DVDs
Duration : 1 h 35 min
Bit rate : 39.6 kb/s
Frame rate : 0.531 FPS
Count of elements : 3052
Stream size : 27.1 MiB (0%)
Title : 粤语繁体
Language : Chinese
Default : No
Forced : No

Text #7
ID : 11
Format : PGS
Codec ID : S_HDMV/PGS
Codec ID/Info : Picture based subtitle format used on BDs/HD-DVDs
Duration : 1 h 31 min
Bit rate : 111 kb/s
Frame rate : 1.161 FPS
Count of elements : 6406
Stream size : 72.8 MiB (0%)
Title : 简中单语特效
Language : Chinese
Default : No
Forced : No

Text #8
ID : 12
Format : PGS
Codec ID : S_HDMV/PGS
Codec ID/Info : Picture based subtitle format used on BDs/HD-DVDs
Duration : 1 h 31 min
Bit rate : 110 kb/s
Frame rate : 1.161 FPS
Count of elements : 6406
Stream size : 72.6 MiB (0%)
Title : 繁中单语特效
Language : Chinese
Default : No
Forced : No

Text #9
ID : 13
Format : PGS
Codec ID : S_HDMV/PGS
Codec ID/Info : Picture based subtitle format used on BDs/HD-DVDs
Duration : 1 h 31 min
Bit rate : 163 kb/s
Frame rate : 1.161 FPS
Count of elements : 6406
Stream size : 108 MiB (1%)
Title : 简英双语特效
Language : Chinese
Default : No
Forced : No

Text #10
ID : 14
Format : PGS
Codec ID : S_HDMV/PGS
Codec ID/Info : Picture based subtitle format used on BDs/HD-DVDs
Duration : 1 h 32 min
Bit rate : 161 kb/s
Frame rate : 1.149 FPS
Count of elements : 6408
Stream size : 107 MiB (1%)
Title : 繁英双语特效
Language : Chinese
Default : No
Forced : No

Menu
00:00:00.000 : :第 01 章
00:11:12.714 : :第 02 章
00:18:06.377 : :第 03 章
00:29:58.130 : :第 04 章
00:38:55.625 : :第 05 章
00:49:20.958 : :第 06 章
01:00:50.856 : :第 07 章
01:08:16.384 : :第 08 章
01:18:10.019 : :第 09 章
01:26:59.798 : :第 10 章


部分资源为软字幕,移动端推荐播放器:MxPlayer,nPlayer,infuse ,其他播放器请自行尝试。

部分资源为软字幕,电脑端推荐播放器:PotPlayer,完美解码,KMPLAYER,其他播放器请自行尝试。

下载端推荐纯BT下载软件:qBittorrent,Bitcomet,uTorrent ,其他下载软件请自行尝试。不支持吸血迅雷。



1 个附件 售价 大小 下载 时间

Sully.2016.V1.BluRay.2160p.TrueHD7.1.HDR.x265.10bit-DreamHD[1LOU.ME].torrent 0 金币 45.02K 1330 次 1月前

#1楼
发帖时间:2024-05-18 19:17:40   |   回复数:1
jokingcheung
超凡入圣№
谢谢分享
1月前 #2楼
游客组