lvchao9947
一代宗师

[2021] [欧美] [剧情] [WEB-4K] 最后的决斗[简繁英字幕].The.Last.Duel.2021.2160p.UHD.BluRay.x265.10bit.HDR.TrueHD.7.1.Atmos

-->

完整标题:最后的决斗[简繁英字幕].The.Last.Duel.2021.2160p.UHD.BluRay.x265.10bit.HDR.TrueHD.7.1.Atmos-SONYHD 19.46GB



◎标  题 最后的决斗
◎译  名 最后决斗(港)
◎片  名 The Last Duel
◎年  代 2021
◎产  地 美国 / 英国
◎类  别 剧情 / 历史
◎语  言 英语 / 德语 / 法语 / 拉丁语
◎上映日期 2021-09-10(威尼斯电影节) / 2021-10-15(美国)
◎IMDb评分 7.4/10 (175845人评价)
◎IMDb链接 https://www.imdb.com/title/tt4244994/
◎豆瓣评分 8.3/10 (83700人评价)
◎豆瓣链接 https://movie.douban.com/subject/34658290/
◎片  长 152分钟
◎导  演 雷德利·斯科特 Ridley Scott
◎编  剧 妮可·哈罗芬瑟 Nicole Holofcener
      本·阿弗莱克 Ben Affleck
      马特·达蒙 Matt Damon
      埃里克·贾格 Eric Jager
◎演  员 朱迪·科默 Jodie Comer
      马特·达蒙 Matt Damon
      亚当·德赖弗 Adam Driver
      本·阿弗莱克 Ben Affleck
      哈丽特·瓦尔特 Harriet Walter
      埃里克斯·劳瑟 Alex Lawther
      马尔顿·索克斯 Marton Csokas
      威廉·休斯顿 William Houston
      奥利弗·科顿 Oliver Cotton
      内森奈尔·帕克 Nathaniel Parker
      塔露拉·哈登 Tallulah Haddon
      布瑞恩尼汉娜 Bryony Hannah
      伊恩·皮里 Ian Pirie
      迈克尔·麦克埃尔哈顿 Michael McElhatton
      山姆·哈兹尔丁 Sam Hazeldine
      克里夫·罗素 Clive Russell
      朱利安·弗思 Julian Firth
      柔伊·布鲁诺 Zoé Bruneau
      亚当·那加提斯 Adam Nagaitis
      卡伊姆赫·O'马莉 Caoimhe O'Malley
      约翰·卡瓦纳 John Kavanagh
      泽利科·伊万内克 Zeljko Ivanek
      克莱尔·邓恩 Clare Dunne
      保罗·班迪 Paul Bandey
      布朗提思·佐杜洛夫斯基 Brontis Jodorowsky
      彼得·哈德森 Peter Hudson
      Dimitri Michelsen Dimitri Michelsen
      科林·大卫·里斯 Colin David Reese
      勃斯科·霍根 Bosco Hogan
      布莱恩F.穆尔维 Brian F. Mulvey
      凯尔·希克森 Kyle Hixon

◎简  介
    根据中世纪法国最后一次经由战斗判决的真实故事改编而成。   在尚·德·卡鲁日(马特·达蒙 饰)的妻子玛格丽特(朱迪·科默 饰)指控贾克·勒·格里(亚当·德莱弗 饰)强奸后,骑士尚·德·卡鲁日向他的前朋友贾克·勒·格里斯发起决斗。   从多个“罗生门-式”的角度讲述。国王查尔斯六世宣布,尚·德·卡鲁日骑士向他的乡绅发起决斗,以解决与他的争端。

##### MediaInfo ######
General
Unique ID : 255388921295828127080670626547689417273 (0xC0221DFA308415A440C4CB34D4996A39)
Complete name : The.Last.Duel.2021.2160p.UHD.BluRay.x265.10bit.HDR.TrueHD.7.1.Atmos-SONYHD.mkv
Duration : 2 h 32 min
Overall bit rate mode : Variable
Overall bit rate : 18.2 Mb/s

Video
ID : 1
Format : HEVC
Format/Info : High Efficiency Video Coding
Format profile : Main [email protected]@High
HDR format : SMPTE ST 2086, HDR10 compatible
Codec ID : V_MPEGH/ISO/HEVC
Duration : 2 h 32 min
Bit rate : 13.6 Mb/s
Width : 3 840 pixels
Height : 1 608 pixels
Display aspect ratio : 2.40:1
Frame rate mode : Constant
Frame rate : 23.976 (24000/1001) FPS
Color space : YUV
Chroma subsampling : 4:2:0 (Type 2)
Bit depth : 10 bits
Bits/(Pixel*Frame) : 0.092
Stream size : 14.5 GiB (75%)
Writing library : x265 3.5g2b25c9ba0+45:[Windows][MSVC 1926][64 bit] Yuuki 10bit+8bit+12bit
Encoding settings : rc=crf / crf=19.5900 / qcomp=0.60 / qpstep=4 / stats-write=0 / stats-read=0 / vbv-maxrate=160000 / vbv-bufsize=160000 / vbv-init=0.9 / min-vbv-fullness=50.0 / max-vbv-fullness=80.0 / crf-max=0.0 / crf-min=0.0 / no-lossless / no-cu-lossless / aq-mode=3 / aq-strength=0.70 / cbqpoffs=0 / crqpoffs=0 / ipratio=1.40 / pbratio=1.30 / psy-rd=2.00 / psy-rdoq=2.00 / deblock=-3:-3 / ref=6 / limit-refs=1 / no-limit-modes / bframes=11 / b-adapt=2 / bframe-bias=0 / b-pyramid / b-intra / weightp / weightb / min-keyint=1 / max-keyint=240 / rc-lookahead=72 / gop-lookahead=0 / scenecut=40 / hist-scenecut=0 / radl=0 / max-cu-size=64 / min-cu-size=8 / me=3 / subme=6 / merange=48 / rdoq-level=2 / rd=4 / rdpenalty=0 / dynamic-rd=0.00 / no-rd-refine / ----- / no-cutree / no-sao / no-rect / no-amp / no-open-gop / wpp / no-pmode / no-pme / no-psnr / no-ssim / nr-intra=0 / nr-inter=0 / no-constrained-intra / no-strong-intra-smoothing / max-tu-size=32 / tu-inter-depth=4 / tu-intra-depth=4 / limit-tu=0 / qg-size=32 / qpmax=69 / qpmin=0 / ----- / cpuid=1111039 / frame-threads=4 / numa-pools=+ / log-level=2 / input-csp=1 / input-res=3840x1608 / interlace=0 / level-idc=51 / high-tier=1 / uhd-bd=0 / no-allow-non-conformance / repeat-headers / aud / no-hrd / info / hash=0 / no-temporal-layers / lookahead-slices=0 / no-splice / no-intra-refresh / no-ssim-rd / signhide / no-tskip / max-merge=5 / temporal-mvp / no-frame-dup / no-hme / analyze-src-pics / no-sao-non-deblock / selective-sao=0 / early-skip / rskip / no-fast-intra / no-tskip-fast / no-splitrd-skip / zone-count=0 / no-strict-cbr / no-rc-grain / no-const-vbv / sar=0 / overscan=0 / videoformat=5 / range=0 / colorprim=9 / transfer=16 / colormatrix=9 / chromaloc=1 / chromaloc-top=2 / chromaloc-bottom=2 / display-window=0 / master-display=G(13250,34500)B(7500,3000)R(34000,16000)WP(15635,16450)L(10000000,50) / cll=0,0 / min-luma=0 / max-luma=1023 / log2-max-poc-lsb=8 / vui-timing-info / vui-hrd-info / slices=1 / no-opt-qp-pps / no-opt-ref-list-length-pps / no-multi-pass-opt-rps / scenecut-bias=0.05 / hist-threshold=0.03 / no-opt-cu-delta-qp / no-aq-motion / hdr10 / hdr10-opt / no-dhdr10-opt / no-idr-recovery-sei / analysis-reuse-level=0 / analysis-save-reuse-level=0 / analysis-load-reuse-level=0 / scale-factor=0 / refine-intra=0 / refine-inter=0 / refine-mv=1 / refine-ctu-distortion=0 / no-limit-sao / ctu-info=0 / no-lowpass-dct / refine-analysis-type=0 / copy-pic=1 / max-ausize-factor=1.0 / no-dynamic-refine / no-single-sei / no-hevc-aq / no-svt / no-field / qp-adaptation-range=1.00 / scenecut-aware-qp=0conformance-window-offsets / right=0 / bottom=0 / decoder-max-rate=0 / no-vbv-live-multi-pass
Default : Yes
Forced : No
Color range : Limited
Color primaries : BT.2020
Transfer characteristics : PQ
Matrix coefficients : BT.2020 non-constant
Mastering display color primaries : Display P3
Mastering display luminance : min: 0.0050 cd/m2, max: 1000 cd/m2

Audio
ID : 2
ID in the original source medium : 4352 (0x1100)
Format : MLP FBA 16-ch
Format/Info : Meridian Lossless Packing FBA with 16-channel presentation
Commercial name : Dolby TrueHD with Dolby Atmos
Codec ID : A_TRUEHD
Duration : 2 h 32 min
Bit rate mode : Variable
Bit rate : 4 446 kb/s
Maximum bit rate : 8 448 kb/s
Channel(s) : 8 channels
Channel layout : L R C LFE Ls Rs Lb Rb
Sampling rate : 48.0 kHz
Frame rate : 1 200.000 FPS (40 SPF)
Compression mode : Lossless
Stream size : 4.74 GiB (24%)
Title : English
Language : English
Default : Yes
Forced : No
Original source medium : Blu-ray
Number of dynamic objects : 13
Bed channel count : 1 channel
Bed channel configuration : LFE

Text #1
ID : 3
ID in the original source medium : 4780 (0x12AC)
Format : PGS
Muxing mode : zlib
Codec ID : S_HDMV/PGS
Codec ID/Info : Picture based subtitle format used on BDs/HD-DVDs
Duration : 2 h 25 min
Bit rate : 50.8 kb/s
Frame rate : 0.516 FPS
Count of elements : 4492
Stream size : 52.7 MiB (0%)
Title : chs&eng
Language : Chinese
Default : Yes
Forced : No
Original source medium : Blu-ray

Text #2
ID : 4
ID in the original source medium : 4781 (0x12AD)
Format : PGS
Muxing mode : zlib
Codec ID : S_HDMV/PGS
Codec ID/Info : Picture based subtitle format used on BDs/HD-DVDs
Duration : 2 h 25 min
Bit rate : 51.5 kb/s
Frame rate : 0.516 FPS
Count of elements : 4492
Stream size : 53.4 MiB (0%)
Title : cht&eng
Language : Chinese
Default : No
Forced : No
Original source medium : Blu-ray

Text #3
ID : 5
ID in the original source medium : 4782 (0x12AE)
Format : PGS
Muxing mode : zlib
Codec ID : S_HDMV/PGS
Codec ID/Info : Picture based subtitle format used on BDs/HD-DVDs
Duration : 2 h 25 min
Bit rate : 33.0 kb/s
Frame rate : 0.516 FPS
Count of elements : 4491
Stream size : 34.2 MiB (0%)
Title : chs
Language : Chinese
Default : No
Forced : No
Original source medium : Blu-ray

Text #4
ID : 6
ID in the original source medium : 4783 (0x12AF)
Format : PGS
Muxing mode : zlib
Codec ID : S_HDMV/PGS
Codec ID/Info : Picture based subtitle format used on BDs/HD-DVDs
Duration : 2 h 25 min
Bit rate : 33.7 kb/s
Frame rate : 0.516 FPS
Count of elements : 4491
Stream size : 34.9 MiB (0%)
Title : cht
Language : Chinese
Default : No
Forced : No
Original source medium : Blu-ray

Text #5
ID : 7
ID in the original source medium : 4768 (0x12A0)
Format : PGS
Muxing mode : zlib
Codec ID : S_HDMV/PGS
Codec ID/Info : Picture based subtitle format used on BDs/HD-DVDs
Duration : 2 h 28 min
Bit rate : 41.7 kb/s
Frame rate : 0.486 FPS
Count of elements : 4336
Stream size : 44.4 MiB (0%)
Title : eng
Language : English
Default : No
Forced : No
Original source medium : Blu-ray

Menu
00:00:00.000 : en:Chapter 01
00:05:02.050 : en:Chapter 02
00:09:42.456 : en:Chapter 03
00:17:43.644 : en:Chapter 04
00:25:59.932 : en:Chapter 05
00:33:25.294 : en:Chapter 06
00:38:51.369 : en:Chapter 07
00:42:34.592 : en:Chapter 08
00:54:23.510 : en:Chapter 09
01:05:52.489 : en:Chapter 10
01:17:07.456 : en:Chapter 11
01:25:24.702 : en:Chapter 12
01:32:50.273 : en:Chapter 13
01:40:17.176 : en:Chapter 14
01:52:06.720 : en:Chapter 15
02:05:28.520 : en:Chapter 16
02:22:25.537 : en:Chapter 17


部分资源为软字幕,移动端推荐播放器:MxPlayer,nPlayer,infuse ,其他播放器请自行尝试。

部分资源为软字幕,电脑端推荐播放器:PotPlayer,完美解码,KMPLAYER,其他播放器请自行尝试。

下载端推荐纯BT下载软件:qBittorrent,Bitcomet,uTorrent ,其他下载软件请自行尝试。不支持吸血迅雷。



1 个附件 售价 大小 下载 时间

The.Last.Duel.2021.2160p.UHD.BluRay.x265.10bit.HDR.TrueHD.7.1.Atmos-SONYHD[1LOU.ME].torrent 0 金币 51.33K 1404 次 26天前

#1楼
发帖时间:2024-05-18 19:17:56   |   回复数:1
jokingcheung
超凡入圣№
谢谢分享
25天前 #2楼
游客组