lvchao9947
一代宗师

[更 早] [欧美] [喜剧] [BD-1080P] 礼帽回归[简繁英字幕].Topper.Returns.1941.1080p.BluRay.x265.10bit.FLAC.2.0-SONYHD 4.73GB

-->

完整标题:礼帽回归[简繁英字幕].Topper.Returns.1941.1080p.BluRay.x265.10bit.FLAC.2.0-SONYHD 4.73GB



◎标  题 礼帽回归
◎片  名 Topper Returns
◎年  代 1941
◎产  地 美国
◎类  别 喜剧 / 爱情 / 悬疑 / 奇幻
◎语  言 英语
◎上映日期 1941-03-21
◎IMDb评分 6.8/10 (3152人评价)
◎IMDb链接 https://www.imdb.com/title/tt0034303/
◎豆瓣链接 https://movie.douban.com/subject/3668131/
◎片  长 88 分钟
◎导  演 罗伊·德尔·鲁斯 Roy Del Ruth
◎编  剧 索恩·史密斯 Thorne Smith
      乔纳森·拉蒂梅尔 Jonathan Latimer
      戈登·道格拉斯 Gordon Douglas
      保罗·吉拉德·史密斯 Paul Girard Smith
◎演  员 琼·布朗德尔 Joan Blondell
      罗兰德·杨 Roland Young
      卡洛尔·兰迪斯 Carole Landis
      威廉·H·奥布莱恩 William H. O'Brien
      Brick Sullivan Brick Sullivan
      H.B.沃纳 H.B. Warner
      乔治·祖科 George Zucco
      Duke York Duke York
      丹尼斯·欧基夫 Dennis O'Keefe
      Rafaela Ottiano Rafaela Ottiano
      George Lloyd George Lloyd
      埃迪·安德森 Eddie 'Rochester' Anderson
      碧莉·伯克 Billie Burke
      帕茜·凯莉 Patsy Kelly
      艾德·钱德勒 Eddy Chandler
      约翰·凯利 John Kelly
      唐纳德麦克布赖德 Donald MacBride
      特雷弗·巴德特 Trevor Bardette

◎简  介
    托普再一次被一种充满乐趣的精神所折磨。这一次,是琼·布朗德尔,她在她富有的朋友安·卡林顿(兰迪斯饰)的家中度假时意外被谋杀。在Topper的帮助下,琼开始寻找凶手,并取得了预期的结果。

点击图片可查看大图

软字幕无法在截图上展现,HDR版本/杜比视界版本截图会出现颜色异常,请使用支持的设备播放!

##### MediaInfo ######
General
Unique ID : 15014727264687257677767809804472378630 (0xB4BBB357778A6C8DE6F8CEB33B76506)
Complete name : Topper.Returns.1941.1080p.BluRay.x265.10bit.FLAC.2.0-SONYHD.mkv
Duration : 1 h 28 min
Overall bit rate mode : Variable
Overall bit rate : 7 663 kb/s

Video
ID : 1
Format : HEVC
Format/Info : High Efficiency Video Coding
Format profile : Main 10@L4@Main
Codec ID : V_MPEGH/ISO/HEVC
Duration : 1 h 28 min
Bit rate : 7 135 kb/s
Width : 1 494 pixels
Height : 1 080 pixels
Display aspect ratio : 1.383
Frame rate mode : Constant
Frame rate : 23.976 (24000/1001) FPS
Color space : YUV
Chroma subsampling : 4:2:0
Bit depth : 10 bits
Bits/(Pixel*Frame) : 0.184
Stream size : 4.40 GiB (93%)
Writing library : x265 3.5g2b25c9ba0+45:[Windows][GCC 10.2.0][64 bit] Yuuki 10bit+8bit+12bit
Encoding settings : rc=crf / crf=17.0000 / qcomp=0.60 / qpstep=4 / stats-write=0 / stats-read=0 / no-lossless / no-cu-lossless / aq-mode=3 / aq-strength=0.80 / cbqpoffs=0 / crqpoffs=0 / ipratio=1.40 / pbratio=1.30 / psy-rd=2.00 / psy-rdoq=0.00 / deblock=0:0 / ref=6 / limit-refs=1 / no-limit-modes / bframes=8 / b-adapt=2 / bframe-bias=0 / b-pyramid / b-intra / weightp / weightb / min-keyint=24 / max-keyint=240 / rc-lookahead=24 / gop-lookahead=0 / scenecut=40 / hist-scenecut=0 / radl=0 / max-cu-size=64 / min-cu-size=8 / me=3 / subme=7 / merange=48 / rdoq-level=0 / rd=4 / rdpenalty=0 / dynamic-rd=0.00 / no-rd-refine / ----- / cutree / sao / no-rect / no-amp / no-open-gop / wpp / no-pmode / no-pme / no-psnr / no-ssim / nr-intra=0 / nr-inter=0 / no-constrained-intra / no-strong-intra-smoothing / max-tu-size=32 / tu-inter-depth=1 / tu-intra-depth=1 / limit-tu=0 / qg-size=32 / qpmax=69 / qpmin=0 / ----- / cpuid=1111039 / frame-threads=5 / numa-pools=+ / log-level=2 / input-csp=1 / input-res=1494x1080 / interlace=0 / level-idc=0 / high-tier=1 / uhd-bd=0 / no-allow-non-conformance / no-repeat-headers / aud / no-hrd / info / hash=0 / no-temporal-layers / lookahead-slices=0 / no-splice / no-intra-refresh / no-ssim-rd / signhide / no-tskip / max-merge=3 / temporal-mvp / no-frame-dup / no-hme / no-analyze-src-pics / no-sao-non-deblock / selective-sao=4 / early-skip / rskip / no-fast-intra / no-tskip-fast / no-splitrd-skip / zone-count=0 / no-strict-cbr / no-rc-grain / no-const-vbv / sar=0 / overscan=0 / videoformat=5 / range=0 / colorprim=2 / transfer=2 / colormatrix=2 / chromaloc=0 / display-window=0 / cll=0,0 / min-luma=0 / max-luma=1023 / log2-max-poc-lsb=8 / vui-timing-info / vui-hrd-info / slices=1 / no-opt-qp-pps / no-opt-ref-list-length-pps / no-multi-pass-opt-rps / scenecut-bias=0.05 / hist-threshold=0.03 / no-opt-cu-delta-qp / no-aq-motion / no-hdr10 / no-hdr10-opt / no-dhdr10-opt / no-idr-recovery-sei / analysis-reuse-level=0 / analysis-save-reuse-level=0 / analysis-load-reuse-level=0 / scale-factor=0 / refine-intra=0 / refine-inter=0 / refine-mv=1 / refine-ctu-distortion=0 / no-limit-sao / ctu-info=0 / no-lowpass-dct / refine-analysis-type=0 / copy-pic=1 / max-ausize-factor=1.0 / no-dynamic-refine / no-single-sei / no-hevc-aq / no-svt / no-field / qp-adaptation-range=1.00 / scenecut-aware-qp=0conformance-window-offsets / right=0 / bottom=0 / decoder-max-rate=0 / no-vbv-live-multi-pass
Language : English
Default : Yes
Forced : No

Audio
ID : 2
Format : FLAC
Format/Info : Free Lossless Audio Codec
Codec ID : A_FLAC
Duration : 1 h 28 min
Bit rate mode : Variable
Bit rate : 431 kb/s
Channel(s) : 2 channels
Channel layout : L R
Sampling rate : 48.0 kHz
Frame rate : 11.719 FPS (4096 SPF)
Bit depth : 16 bits
Compression mode : Lossless
Stream size : 272 MiB (6%)
Writing library : libFLAC 1.2.1 (UTC 2007-09-17)
Language : English
Default : Yes
Forced : No

Text #1
ID : 3
ID in the original source medium : 4609 (0x1201)
Format : PGS
Muxing mode : zlib
Codec ID : S_HDMV/PGS
Codec ID/Info : Picture based subtitle format used on BDs/HD-DVDs
Duration : 1 h 27 min
Bit rate : 55.5 kb/s
Frame rate : 0.433 FPS
Count of elements : 2276
Stream size : 34.8 MiB (1%)
Title : chs&eng
Language : Chinese
Default : Yes
Forced : No
Original source medium : Blu-ray

Text #2
ID : 4
ID in the original source medium : 4610 (0x1202)
Format : PGS
Muxing mode : zlib
Codec ID : S_HDMV/PGS
Codec ID/Info : Picture based subtitle format used on BDs/HD-DVDs
Duration : 1 h 27 min
Bit rate : 55.7 kb/s
Frame rate : 0.433 FPS
Count of elements : 2276
Stream size : 34.9 MiB (1%)
Title : cht&eng
Language : Chinese
Default : No
Forced : No
Original source medium : Blu-ray

Text #3
ID : 5
ID in the original source medium : 4611 (0x1203)
Format : PGS
Muxing mode : zlib
Codec ID : S_HDMV/PGS
Codec ID/Info : Picture based subtitle format used on BDs/HD-DVDs
Duration : 1 h 27 min
Bit rate : 30.9 kb/s
Frame rate : 0.433 FPS
Count of elements : 2276
Stream size : 19.4 MiB (0%)
Title : chs
Language : Chinese
Default : No
Forced : No
Original source medium : Blu-ray

Text #4
ID : 6
ID in the original source medium : 4612 (0x1204)
Format : PGS
Muxing mode : zlib
Codec ID : S_HDMV/PGS
Codec ID/Info : Picture based subtitle format used on BDs/HD-DVDs
Duration : 1 h 27 min
Bit rate : 31.1 kb/s
Frame rate : 0.433 FPS
Count of elements : 2276
Stream size : 19.5 MiB (0%)
Title : cht
Language : Chinese
Default : No
Forced : No
Original source medium : Blu-ray

Text #5
ID : 7
ID in the original source medium : 4608 (0x1200)
Format : PGS
Muxing mode : zlib
Codec ID : S_HDMV/PGS
Codec ID/Info : Picture based subtitle format used on BDs/HD-DVDs
Duration : 1 h 27 min
Bit rate : 39.5 kb/s
Frame rate : 0.624 FPS
Count of elements : 3296
Stream size : 24.8 MiB (1%)
Title : eng
Language : English
Default : No
Forced : No
Original source medium : Blu-ray

Menu
00:00:00.000 : en:Chapter 01
00:05:55.313 : en:Chapter 02
00:13:12.458 : en:Chapter 03
00:20:17.216 : en:Chapter 04
00:27:38.073 : en:Chapter 05
00:35:11.109 : en:Chapter 06
00:41:43.125 : en:Chapter 07
00:48:26.028 : en:Chapter 08
00:56:26.341 : en:Chapter 09
01:03:51.911 : en:Chapter 10
01:12:23.088 : en:Chapter 11
01:18:38.880 : en:Chapter 12


部分资源为软字幕,移动端推荐播放器:MxPlayer,nPlayer,infuse ,其他播放器请自行尝试。

部分资源为软字幕,电脑端推荐播放器:PotPlayer,完美解码,KMPLAYER,其他播放器请自行尝试。

下载端推荐纯BT下载软件:qBittorrent,Bitcomet,uTorrent ,其他下载软件请自行尝试。不支持吸血迅雷。



1 个附件 售价 大小 下载 时间

Topper.Returns.1941.1080p.BluRay.x265.10bit.FLAC.2.0-SONYHD[1LOU.ME].torrent 0 金币 14.48K 889 次 1月前

#1楼
发帖时间:2024-05-18 19:18:26   |   回复数:1
jokingcheung
超凡入圣№
谢谢分享
1月前 #2楼
游客组