lvchao9947
一代宗师

[更 早] [大陆] [喜剧] [WEB-1080P] 主播风云[国语配音/中文字幕].Direct.Seeding.2024.1080p.WEB-DL.H264.AAC-MOMOWEB 1.12GB

-->

完整标题:主播风云[国语配音/中文字幕].Direct.Seeding.2024.1080p.WEB-DL.H264.AAC-MOMOWEB 1.12GB



◎标  题 主播风云
◎年  代 2004
◎产  地 中国大陆
◎类  别 喜剧 / 爱情
◎语  言 汉语普通话
◎上映日期 2004-04-16(中国大陆)
◎IMDb链接 https://www.imdb.com/title//
◎豆瓣链接 https://movie.douban.com/subject/36857694/
◎片  长 73分钟
◎导  演 黄健明 Jianming Huang

◎简  介
    小静原本是一名模特领队,但因为与原公司“亚比模特公司”工作理念不一致,被驱逐出公司。 正当小静失落之时,刚好收到朋友李哥的邀请,女模特小静跨界成为网络主播,带动当地农副产品的助销,并间接推动了当地经济的增长, 此时,小静的前公司“亚比模特”也想借此分一杯羹,将旗下模特艺人打造成优质主播,而小静便是他们最大的威胁。于是“亚比公司”的老板威廉,利用各种手段恶意打压“安喜文化传媒”。 小静为了挽回团队的声誉,正面接受“亚比公司”的直播挑战,最终成长为一名正面积极、健康向上的优质主播。

点击图片可查看大图

软字幕无法在截图上展现,HDR版本/杜比视界版本截图会出现颜色异常,请使用支持的设备播放!

##### MediaInfo ######
General
Complete name : Direct.Seeding.2024.1080p.WEB-DL.H264.AAC-MOMOWEB.mp4
Duration : 1 h 13 min
Overall bit rate mode : Variable
Overall bit rate : 2 173 kb/s

Video
ID : 1
Format : AVC
Format/Info : Advanced Video Codec
Format profile : High@L4
Format settings : CABAC / 3 Ref Frames
Format settings, CABAC : Yes
Format settings, Reference frames : 3 frames
Codec ID : avc1
Codec ID/Info : Advanced Video Coding
Duration : 1 h 13 min
Bit rate : 1 978 kb/s
Width : 1 920 pixels
Height : 800 pixels
Display aspect ratio : 2.40:1
Frame rate mode : Variable
Frame rate : 23.906 FPS
Minimum frame rate : 0.161 FPS
Maximum frame rate : 24.000 FPS
Original frame rate : 24.000 FPS
Color space : YUV
Chroma subsampling : 4:2:0
Bit depth : 8 bits
Scan type : Progressive
Bits/(Pixel*Frame) : 0.054
Stream size : 1.02 GiB (91%)
Color range : Limited
Color primaries : BT.709
Transfer characteristics : BT.709
Matrix coefficients : BT.709
Codec configuration box : avcC

Audio
ID : 2
Format : AAC LC
Format/Info : Advanced Audio Codec Low Complexity
Codec ID : mp4a-40-2
Duration : 1 h 13 min
Bit rate mode : Variable
Bit rate : 192 kb/s
Channel(s) : 2 channels
Channel layout : L R
Sampling rate : 44.1 kHz
Frame rate : 43.066 FPS (1024 SPF)
Compression mode : Lossy
Stream size : 99.7 MiB (9%)
Default : Yes
Alternate group : 1


部分资源为软字幕,移动端推荐播放器:MxPlayer,nPlayer,infuse ,其他播放器请自行尝试。

部分资源为软字幕,电脑端推荐播放器:PotPlayer,完美解码,KMPLAYER,其他播放器请自行尝试。

下载端推荐纯BT下载软件:qBittorrent,Bitcomet,uTorrent ,其他下载软件请自行尝试。不支持吸血迅雷。



1 个附件 售价 大小 下载 时间

Direct.Seeding.2024.1080p.WEB-DL.H264.AAC-MOMOWEB[1LOU.ME].torrent 0 金币 5.44K 700 次 1月前

#1楼
发帖时间:2024-05-18 19:18:41   |   回复数:0
游客组