lvchao9947
一代宗师

[更 早] [大陆] [悬疑] [WEB-1080P] 催眠对决[国语配音/中文字幕].Hypnosis.Battle.2024.1080p.WEB-DL.H264.AAC-MOMOWEB 0.94GB

-->

完整标题:催眠对决[国语配音/中文字幕].Hypnosis.Battle.2024.1080p.WEB-DL.H264.AAC-MOMOWEB 0.94GB



◎标  题 催眠对决
◎年  代 2025
◎产  地 中国大陆
◎类  别 悬疑
◎语  言 汉语普通话
◎上映日期 2025(中国大陆)
◎IMDb链接 https://www.imdb.com/title//
◎豆瓣链接 https://movie.douban.com/subject/36635604/
◎片  长 102
◎导  演 武束衣
      许少飞 Shaofei Xu
◎编  剧 武束衣
◎演  员 崔鹏 Peng Cui
      邵芸 Yun Shao
      赵小锐 Xiaorui Zhao
      李梅 Mei Li
      邢瀚卿 Hanqing Xing
      龚小钧 Xiaojun Gong
      牛宝军 Baojun Niu

◎简  介
    影片讲述了知名心理学教授叶远东受女演员安雅之托,携助手前往神秘的郊外别墅,参加关于催眠的剧本会,却意外被卷入一场迷局……

点击图片可查看大图

软字幕无法在截图上展现,HDR版本/杜比视界版本截图会出现颜色异常,请使用支持的设备播放!

##### MediaInfo ######
General
Complete name : Hypnosis.Battle.2024.1080p.WEB-DL.H264.AAC-MOMOWEB.mp4
Duration : 1 h 42 min
Overall bit rate mode : Variable
Overall bit rate : 1 314 kb/s

Video
ID : 1
Format : AVC
Format/Info : Advanced Video Codec
Format profile : High@L4
Format settings : CABAC / 3 Ref Frames
Format settings, CABAC : Yes
Format settings, Reference frames : 3 frames
Codec ID : avc1
Codec ID/Info : Advanced Video Coding
Duration : 1 h 42 min
Bit rate : 1 118 kb/s
Width : 1 920 pixels
Height : 800 pixels
Display aspect ratio : 2.40:1
Frame rate mode : Constant
Frame rate : 24.000 FPS
Color space : YUV
Chroma subsampling : 4:2:0
Bit depth : 8 bits
Scan type : Progressive
Bits/(Pixel*Frame) : 0.030
Stream size : 821 MiB (85%)
Color range : Limited
Color primaries : BT.709
Transfer characteristics : BT.709
Matrix coefficients : BT.709
Codec configuration box : avcC

Audio
ID : 2
Format : AAC LC
Format/Info : Advanced Audio Codec Low Complexity
Codec ID : mp4a-40-2
Duration : 1 h 42 min
Bit rate mode : Variable
Bit rate : 192 kb/s
Channel(s) : 2 channels
Channel layout : L R
Sampling rate : 44.1 kHz
Frame rate : 43.066 FPS (1024 SPF)
Compression mode : Lossy
Stream size : 139 MiB (14%)
Default : Yes
Alternate group : 1


部分资源为软字幕,移动端推荐播放器:MxPlayer,nPlayer,infuse ,其他播放器请自行尝试。

部分资源为软字幕,电脑端推荐播放器:PotPlayer,完美解码,KMPLAYER,其他播放器请自行尝试。

下载端推荐纯BT下载软件:qBittorrent,Bitcomet,uTorrent ,其他下载软件请自行尝试。不支持吸血迅雷。



1 个附件 售价 大小 下载 时间

Hypnosis.Battle.2024.1080p.WEB-DL.H264.AAC-MOMOWEB[1LOU.ME].torrent 0 金币 5.00K 728 次 1月前

#1楼
发帖时间:2024-05-18 19:19:11   |   回复数:0
游客组