lvchao9947
一代宗师

[2024] [大陆] [爱情] [WEB-4K] 金牌河东狮吼[高码版][国语配音/中文字幕].Forever.the.Lioness.Roars.2024.2160p.HQ.WEB-DL.H265.DDP2.

-->

完整标题:金牌河东狮吼[高码版][国语配音/中文字幕].Forever.the.Lioness.Roars.2024.2160p.HQ.WEB-DL.H265.DDP2.0-DreamHD 11.43GB



◎标  题 金牌河东狮吼
◎年  代 2024
◎产  地 中国大陆
◎类  别 爱情 / 奇幻 / 古装
◎语  言 汉语普通话
◎上映日期 2024-05-18(中国大陆网络)
◎IMDb链接 https://www.imdb.com/title//
◎豆瓣链接 https://movie.douban.com/subject/35460370/
◎编  剧 马伟豪 Joe Ma
◎演  员 吴佩柔 Peirou Wu
      索笑坤 Xiaokun Suo

◎简  介
    经典IP魔改升级,人、妖两界不共戴天,程季常,李月娥神仙眷侣再现江湖。看二人如何抗宿命,斩心魔,闯情关,东方魔幻版为爱狮吼一触即发!

点击图片可查看大图

软字幕无法在截图上展现,HDR版本/杜比视界版本截图会出现颜色异常,请使用支持的设备播放!

##### MediaInfo ######
General
Unique ID : 93513718527842525850198786897998247935 (0x465A164A601431A353C3BCBB6357F7FF)
Complete name : Forever.the.Lioness.Roars.2024.2160p.HQ.WEB-DL.H265.DDP2.0-DreamHD.mkv
Duration : 1 h 20 min
Overall bit rate : 20.4 Mb/s

Video
ID : 1
Format : HEVC
Format/Info : High Efficiency Video Coding
Format profile : Main [email protected]@Main
Codec ID : V_MPEGH/ISO/HEVC
Duration : 1 h 20 min
Bit rate : 19.9 Mb/s
Width : 3 840 pixels
Height : 1 640 pixels
Display aspect ratio : 2.35:1
Frame rate mode : Constant
Frame rate : 25.000 FPS
Color space : YUV
Chroma subsampling : 4:2:0
Bit depth : 10 bits
Bits/(Pixel*Frame) : 0.126
Stream size : 11.1 GiB (97%)
Default : Yes
Forced : No
Color range : Limited
Color primaries : BT.709
Transfer characteristics : BT.709
Matrix coefficients : BT.709

Audio #1
ID : 2
Format : E-AC-3
Format/Info : Enhanced AC-3
Commercial name : Dolby Digital Plus
Codec ID : A_EAC3
Duration : 1 h 20 min
Bit rate mode : Constant
Bit rate : 256 kb/s
Channel(s) : 2 channels
Channel layout : L R
Sampling rate : 48.0 kHz
Frame rate : 31.250 FPS (1536 SPF)
Bit depth : 32 bits
Compression mode : Lossy
Stream size : 147 MiB (1%)
Title : Mandarin [DDP2.0]
Language : Chinese
Service kind : Complete Main
Default : Yes
Forced : No

Audio #2
ID : 3
Format : AAC LC
Format/Info : Advanced Audio Codec Low Complexity
Codec ID : A_AAC-2
Duration : 1 h 20 min
Bit rate : 256 kb/s
Channel(s) : 2 channels
Channel layout : L R
Sampling rate : 44.1 kHz
Frame rate : 43.066 FPS (1024 SPF)
Compression mode : Lossy
Stream size : 147 MiB (1%)
Title : Mandarin [AAC2.0]
Language : Chinese
Default : No
Forced : No


部分资源为软字幕,移动端推荐播放器:MxPlayer,nPlayer,infuse ,其他播放器请自行尝试。

部分资源为软字幕,电脑端推荐播放器:PotPlayer,完美解码,KMPLAYER,其他播放器请自行尝试。

下载端推荐纯BT下载软件:qBittorrent,Bitcomet,uTorrent ,其他下载软件请自行尝试。不支持吸血迅雷。



1 个附件 售价 大小 下载 时间

Forever.the.Lioness.Roars.2024.2160p.HQ.WEB-DL.H265.DDP2.0-DreamHD[1LOU.ME].torrent 0 金币 31.28K 847 次 26天前

#1楼
发帖时间:2024-05-18 19:22:41   |   回复数:0
游客组