lvchao9947
一代宗师

[2024] [大陆] [爱情] [WEB-4K] 金牌河东狮吼[国语配音/中文字幕].Forever.the.Lioness.Roars.2024.2160p.WEB-DL.H265.EDR.DDP2.0-BA

-->

完整标题:金牌河东狮吼[国语配音/中文字幕].Forever.the.Lioness.Roars.2024.2160p.WEB-DL.H265.EDR.DDP2.0-BATWEB 8.04GB



◎标  题 金牌河东狮吼
◎年  代 2024
◎产  地 中国大陆
◎类  别 爱情 / 奇幻 / 古装
◎语  言 汉语普通话
◎上映日期 2024-05-18(中国大陆网络)
◎IMDb链接 https://www.imdb.com/title//
◎豆瓣链接 https://movie.douban.com/subject/35460370/
◎编  剧 马伟豪 Joe Ma
◎演  员 吴佩柔 Peirou Wu
      索笑坤 Xiaokun Suo

◎简  介
    经典IP魔改升级,人、妖两界不共戴天,程季常,李月娥神仙眷侣再现江湖。看二人如何抗宿命,斩心魔,闯情关,东方魔幻版为爱狮吼一触即发!

点击图片可查看大图

软字幕无法在截图上展现,HDR版本/杜比视界版本截图会出现颜色异常,请使用支持的设备播放!

##### MediaInfo ######
General
Unique ID : 333829480157485821550843504122236487944 (0xFB25381E80FFEB622CB03E0A9973C908)
Complete name : Forever.the.Lioness.Roars.2024.2160p.WEB-DL.H265.EDR.DDP2.0-BATWEB.mkv
Duration : 1 h 20 min
Overall bit rate : 14.3 Mb/s

Video
ID : 1
Format : HEVC
Format/Info : High Efficiency Video Coding
Format profile : Main@L5@Main
Codec ID : V_MPEGH/ISO/HEVC
Duration : 1 h 20 min
Bit rate : 14.0 Mb/s
Width : 3 840 pixels
Height : 1 632 pixels
Display aspect ratio : 2.35:1
Frame rate mode : Constant
Frame rate : 25.000 FPS
Color space : YUV
Chroma subsampling : 4:2:0
Bit depth : 8 bits
Bits/(Pixel*Frame) : 0.090
Stream size : 7.87 GiB (98%)
Language : Chinese
Default : Yes
Forced : No

Audio #1
ID : 2
Format : AAC LC
Format/Info : Advanced Audio Codec Low Complexity
Codec ID : A_AAC-2
Duration : 1 h 20 min
Bit rate : 192 kb/s
Channel(s) : 2 channels
Channel layout : L R
Sampling rate : 44.1 kHz
Frame rate : 43.066 FPS (1024 SPF)
Compression mode : Lossy
Stream size : 109 MiB (1%)
Default : No
Forced : No

Audio #2
ID : 3
Format : E-AC-3
Format/Info : Enhanced AC-3
Commercial name : Dolby Digital Plus
Codec ID : A_EAC3
Duration : 1 h 20 min
Bit rate mode : Constant
Bit rate : 96.0 kb/s
Channel(s) : 2 channels
Channel layout : L R
Sampling rate : 48.0 kHz
Frame rate : 31.250 FPS (1536 SPF)
Compression mode : Lossy
Stream size : 55.2 MiB (1%)
Title : zh-ch [Dolby Digital Plus 2.0]
Language : Chinese
Service kind : Complete Main
Default : Yes
Forced : No


部分资源为软字幕,移动端推荐播放器:MxPlayer,nPlayer,infuse ,其他播放器请自行尝试。

部分资源为软字幕,电脑端推荐播放器:PotPlayer,完美解码,KMPLAYER,其他播放器请自行尝试。

下载端推荐纯BT下载软件:qBittorrent,Bitcomet,uTorrent ,其他下载软件请自行尝试。不支持吸血迅雷。



1 个附件 售价 大小 下载 时间

Forever.the.Lioness.Roars.2024.2160p.WEB-DL.H265.EDR.DDP2.0-BATWEB[1LOU.ME].torrent 0 金币 22.77K 777 次 26天前

#1楼
发帖时间:2024-05-18 19:23:12   |   回复数:0
游客组