lvchao9947
一代宗师

[2023] [大陆] [悬疑] [WEB-1080P] 黄金七令之罗刹风云[国语配音/中文字幕].2023.1080p.WEB-DL.H264.AAC-MOMOWEB 0.83GB

-->

完整标题:黄金七令之罗刹风云[国语配音/中文字幕].2023.1080p.WEB-DL.H264.AAC-MOMOWEB 0.83GB



◎标  题 黄金七令之罗刹风云
◎译  名 噬魂七令之罗刹风云 / 黄金诡事录 / 七令诡事录
◎年  代 2023
◎产  地 中国大陆
◎类  别 悬疑 / 惊悚 / 恐怖
◎语  言 汉语普通话
◎上映日期 2023-11-17(中国大陆)
◎IMDb链接 https://www.imdb.com/title//
◎豆瓣链接 https://movie.douban.com/subject/36119118/
◎片  长 86
◎导  演 徐俊 Jun Xu
◎演  员  任子豪
      何雨宸
      李子雄 Waise Lee
      李家辛 Jiaxin Li
      徐俊 Jun Xu
      朱翔 Xiang Zhu
      范奇
      袁祥仁 Cheung-Yan Yuen

◎简  介
    《七令诡事录》是由徐俊、高悟翔执导,任子豪、何雨宸、李家辛、袁祥仁,徐俊、 领衔主演,刘硕、张宸彬、朱翔、胡建伟、李平安、钱婧睿、曹忆等出演的惊悚、悬疑、恐怖片。   该片讲述江湖豪侠薛氏兄妹,薛小风和薛小花被人陷害被卷入掏心惨案中,随着黄金七令浮出水面,薛氏兄妹联手警察局总探长段广龙,将黄金七令背后的秘密一层层揭开。

##### MediaInfo ######
General
Complete name : Seven.Orders.of.Mystery.The.Rakshasa.Storm.2023.1080p.WEB-DL.H264.AAC-MOMOWEB.mp4
Duration : 1 h 34 min
Overall bit rate mode : Variable
Overall bit rate : 1 249 kb/s

Video
ID : 1
Format : AVC
Format/Info : Advanced Video Codec
Format profile : High@L4
Format settings : CABAC / 3 Ref Frames
Format settings, CABAC : Yes
Format settings, Reference frames : 3 frames
Codec ID : avc1
Codec ID/Info : Advanced Video Coding
Duration : 1 h 34 min
Bit rate : 1 052 kb/s
Width : 1 920 pixels
Height : 800 pixels
Display aspect ratio : 2.40:1
Frame rate mode : Variable
Frame rate : 24.969 FPS
Minimum frame rate : 0.464 FPS
Maximum frame rate : 25.000 FPS
Original frame rate : 25.000 FPS
Color space : YUV
Chroma subsampling : 4:2:0
Bit depth : 8 bits
Scan type : Progressive
Bits/(Pixel*Frame) : 0.027
Stream size : 715 MiB (84%)
Color range : Limited
Color primaries : BT.709
Transfer characteristics : BT.709
Matrix coefficients : BT.709
Codec configuration box : avcC

Audio
ID : 2
Format : AAC LC
Format/Info : Advanced Audio Codec Low Complexity
Codec ID : mp4a-40-2
Duration : 1 h 34 min
Bit rate mode : Variable
Bit rate : 192 kb/s
Channel(s) : 2 channels
Channel layout : L R
Sampling rate : 44.1 kHz
Frame rate : 43.066 FPS (1024 SPF)
Compression mode : Lossy
Stream size : 129 MiB (15%)
Default : Yes
Alternate group : 1


部分资源为软字幕,移动端推荐播放器:MxPlayer,nPlayer,infuse ,其他播放器请自行尝试。

部分资源为软字幕,电脑端推荐播放器:PotPlayer,完美解码,KMPLAYER,其他播放器请自行尝试。

下载端推荐纯BT下载软件:qBittorrent,Bitcomet,uTorrent ,其他下载软件请自行尝试。不支持吸血迅雷。



1 个附件 售价 大小 下载 时间

2023.1080p.WEB-DL.H264.AAC-MOMOWEB[1LOU.ME].torrent 0 金币 4.75K 805 次 26天前

#1楼
发帖时间:2024-05-18 19:24:13   |   回复数:0
游客组