BILL36
隐世仙人♂

[2024] [大陆] [剧情] [WEB-1080P] 庆余年 第二季[第08集][国语配音/中文字幕].Joy.of.Life.2.S02.1080p.DSNP.WEB-DL.AAC.2.0.H.264-Black

-->

完整标题:庆余年 第二季[第08集][国语配音/中文字幕].Joy.of.Life.2.S02.1080p.DSNP.WEB-DL.AAC.2.0.H.264-BlackTV 2.17GB



◎标  题 庆余年 第二季
◎译  名 庆余年2 / Joy of Life 2
◎年  代 2024
◎产  地 中国大陆
◎类  别 剧情 / 古装
◎语  言 汉语普通话
◎IMDb链接 https://www.imdb.com/title/tt27935747/
◎豆瓣链接 https://movie.douban.com/subject/34937650/
◎导  演 孙皓 Hao Sun
◎编  剧 王倦 Juan Wang
      猫腻 Mao Ni
◎演  员 张若昀 Ruoyun Zhang
      李沁 Qin Li
      陈道明 Daoming Chen
      吴刚 Gang Wu
      田雨 Yu Tian
      李小冉 Xiaoran Li
      俞飞鸿 Faye Yu
      袁泉 Quan Yuan
      毛晓彤 Xiaotong Mao
      郭麒麟 Kevin Guo
      宋轶 Yi Song
      辛芷蕾 Zhilei Xin
      宁理 Li Ning
      刘端端 Duanduan Liu
      张昊唯 Haowei Zhang
      付辛博 Xinbo Fu
      高曙光 Shuguang Gao
      赵柯 Karina Zhao
      于洋 Yang Yu
      李强 Qiang Li
      刘桦 Hua Liu
      佟梦实 Mengshi Tong
      郭子凡 Zifan Guo
      金晨 Chen Jin
      王楚然 Churan Wang
      高露 Lu Gao
      王晓晨 Xiaochen Wang
      隋俊波 Junbo Sui
      归亚蕾 Ya-lei Kuei
      余皑磊 Ailei Yu
      毕彦君 Yanjun Bi
      罗二羊 Eryang Luo
      吴幸键 Xingjian Wu
      宣言 Yan Xuan
      王庆祥 Qingxiang Wang
      徐志胜 Zhisheng Xu
      崔志刚 Zhigang Cui
      傅迦 Jia Fu
      姚安濂 Anlian Yao
      秦焰 Yan Qin
      沈晓海 Xiaohai Shen
      王同辉 Tonghui Wang
      冯兵 Bing Feng
      常铖 Cheng Chang
      王建国 Jianguo Wang
      刘宇桥 Yuqiao Liu
      冯恩鹤 Enhe Feng
      赵振廷 Zhenting Zhao
      董可飞 Kefei Dong
      李俊贤 Junxian Li
      崔鹏 Peng Cui
      贾景晖 Jinghui Jia
      王天辰 Tianchen Wang
      代文雯 Wenwen Dai
      王成阳 Cheng-yang Wang
      张弛 Chi Zhang
      左凌峰 Lingfeng Zuo
      刘同 Tong Liu
      张维伊 Weiyi Zhang
      东靖川 Jingchuan Dong
      杨彤 Tong Yang
      孙亦沐 Louis Sun
      于小鸣 Xiaoming Yu
      魏炳桦 Binghua Wei
      李珞桉 Luoan Li
      刘同 Tong Liu

◎简  介
    该剧改编自猫腻同名畅销小说,承接上季,范闲(张若昀 饰)率领使团回归途中,二皇子以费介、范思辙以及滕家遗孤的安危来威胁范闲,逼他向自己俯首称臣,二人的矛盾就此激发。范闲所面对的抱月楼迷局,以及接踵而至的春闱危机,都是二皇子精心给范闲布下的陷阱。   范闲与林婉儿如愿大婚,紧接着,范闲接手内库,却发现内库负债累累。 范闲拒绝了庆余堂大掌柜的相助,决定靠自己的力量解决内库危机,范闲相约城中众商贾相聚苍山,以售卖“库债”为机筹集了两千多万银两,解决了内库空虚问题。   悬空寺上,庆帝遭遇三连刺杀,范闲出手相救却导致武功全废。危机四伏,压力陡增,范闲别无选择,他必须以这样的身体下江南,挑战庞大的势力与既定的游戏规则,以求彻底夺回内库。

部分资源为软字幕,移动端推荐播放器:MxPlayer,nPlayer,infuse ,其他播放器请自行尝试。

部分资源为软字幕,电脑端推荐播放器:PotPlayer,完美解码,KMPLAYER,其他播放器请自行尝试。

下载端推荐纯BT下载软件:qBittorrent,Bitcomet,uTorrent ,其他下载软件请自行尝试。不支持吸血迅雷。

##### MediaInfo ######
General
Unique ID : 167085190237963529519992970404576543060 (0x7DB36FE6B8E9D50DFE5E6550BC9EC154)
Complete name : Joy.of.Life.2.S02E08.Episode.8.1080p.DSNP.WEB-DL.AAC.2.0.H.264-BlackTV.mkv
Duration : 45 min 27 s
Overall bit rate mode : Variable
Overall bit rate : 6 842 kb/s

Video
ID : 1
Format : AVC
Format/Info : Advanced Video Codec
Format profile : High@L4
Format settings : CABAC / 4 Ref Frames
Format settings, CABAC : Yes
Format settings, Reference frames : 4 frames
Codec ID : V_MPEG4/ISO/AVC
Duration : 45 min 27 s
Bit rate mode : Variable
Bit rate : 6 715 kb/s
Maximum bit rate : 12.7 Mb/s
Width : 1 920 pixels
Height : 1 080 pixels
Display aspect ratio : 16:9
Frame rate mode : Constant
Frame rate : 25.000 FPS
Color space : YUV
Chroma subsampling : 4:2:0
Bit depth : 8 bits
Scan type : Progressive
Bits/(Pixel*Frame) : 0.130
Stream size : 2.13 GiB (98%)
Language : Chinese
Default : Yes
Forced : No
Color range : Limited
Color primaries : BT.709
Transfer characteristics : BT.709
Matrix coefficients : BT.709

Audio
ID : 2
Format : AAC LC
Format/Info : Advanced Audio Codec Low Complexity
Codec ID : A_AAC-2
Duration : 45 min 27 s
Bit rate : 125 kb/s
Channel(s) : 2 channels
Channel layout : L R
Sampling rate : 48.0 kHz
Frame rate : 46.875 FPS (1024 SPF)
Compression mode : Lossy
Stream size : 40.8 MiB (2%)
Language : Chinese
Default : Yes
Forced : No

Text
ID : 3
Format : UTF-8
Codec ID : S_TEXT/UTF8
Codec ID/Info : UTF-8 Plain Text
Duration : 41 min 31 s
Bit rate : 53 b/s
Frame rate : 0.299 FPS
Count of elements : 744
Stream size : 16.2 KiB (0%)
Title : Traditional
Language : Chinese
Default : No
Forced : No

Menu
00:00:04.000 : en:Intro
00:01:34.000 : en:Scene 1
00:43:04.000 : en:Credits




1 个附件 售价 大小 下载 时间

Joy.of.Life.2.S02.1080p.DSNP.WEB-DL.AAC.2.0.H.264-BlackTV[1LOU.ME].torrent 0 金币 7.97K 10437 次 26天前

#1楼
发帖时间:2024-05-18 20:18:14   |   回复数:0
游客组