BILL36
隐世仙人♂

[2024] [大陆] [真人秀] [WEB-4K] 哈哈哈哈哈 第四季[第18集][国语配音/中文字幕].Ha.Ha.Ha.Ha.Ha.S04.2020.2160p.WEB-DL.H265.EDR.AAC-Lel

-->

完整标题:哈哈哈哈哈 第四季[第18集][国语配音/中文字幕].Ha.Ha.Ha.Ha.Ha.S04.2020.2160p.WEB-DL.H265.EDR.AAC-LelveTV 9.25GB



◎标  题 哈哈哈哈哈 第四季
◎译  名 五哈 第4季 / 五哈4 / 5哈4
◎年  代 2024
◎产  地 中国大陆
◎类  别 真人秀
◎语  言 汉语普通话
◎IMDb链接 https://www.imdb.com/title//
◎豆瓣链接 https://movie.douban.com/subject/36533816/
◎演  员 邓超 Chao Deng
      陈赫 He Chen
      鹿晗 Han Lu
      范志毅 Zhiyi Fan
      董宝石 Baoshi Dong
      王勉 Mian Wang
      蔡国庆 Guoqing Cai
      李维嘉 Weijia Li
      荣梓杉 Zishan Rong

◎简  介
    第四季由邓超、陈赫、鹿晗、范志毅、宝石gem、王勉继续组团出游,今年他们将走向世界,开启更大范围的草率旅行,去征服更多的山川湖海。

部分资源为软字幕,移动端推荐播放器:MxPlayer,nPlayer,infuse ,其他播放器请自行尝试。

部分资源为软字幕,电脑端推荐播放器:PotPlayer,完美解码,KMPLAYER,其他播放器请自行尝试。

下载端推荐纯BT下载软件:qBittorrent,Bitcomet,uTorrent ,其他下载软件请自行尝试。不支持吸血迅雷。

##### MediaInfo ######
General
Unique ID : 100566152594280087566030462247656674602 (0x4BA85622B8CDDB278D3A975FE21AD52A)
Complete name : Ha.Ha.Ha.Ha.Ha.S04E18.2020.2160p.WEB-DL.H265.EDR.AAC-LelveTV.mkv
Duration : 1 h 24 min
Overall bit rate : 15.7 Mb/s

Video
ID : 1
Format : HEVC
Format/Info : High Efficiency Video Coding
Format profile : Main@L5@Main
Codec ID : V_MPEGH/ISO/HEVC
Duration : 1 h 24 min
Bit rate : 15.5 Mb/s
Width : 3 840 pixels
Height : 2 160 pixels
Display aspect ratio : 16:9
Frame rate mode : Constant
Frame rate : 25.000 FPS
Color space : YUV
Chroma subsampling : 4:2:0
Bit depth : 8 bits
Bits/(Pixel*Frame) : 0.075
Stream size : 9.14 GiB (99%)
Language : Chinese
Default : Yes
Forced : No

Audio
ID : 2
Format : AAC LC
Format/Info : Advanced Audio Codec Low Complexity
Codec ID : A_AAC-2
Duration : 1 h 24 min
Bit rate : 192 kb/s
Channel(s) : 2 channels
Channel layout : L R
Sampling rate : 44.1 kHz
Frame rate : 43.066 FPS (1024 SPF)
Compression mode : Lossy
Stream size : 115 MiB (1%)
Default : No
Forced : No




1 个附件 售价 大小 下载 时间

Ha.Ha.Ha.Ha.Ha.S04.2020.2160p.WEB-DL.H265.EDR.AAC-LelveTV[1LOU.ME].torrent 0 金币 25.66K 602 次 26天前

#1楼
发帖时间:2024-05-18 20:18:35   |   回复数:0
游客组