BILL36
隐世仙人♂

[2023] [大陆] [喜剧] [WEB-1080P] 师兄啊师兄[第37集][国语配音/中文字幕].Big.Brother.S01.2023.1080p.WEB-DL.H264.AAC-LelveTV 0.36GB

-->

完整标题:师兄啊师兄[第37集][国语配音/中文字幕].Big.Brother.S01.2023.1080p.WEB-DL.H264.AAC-LelveTV 0.36GB



◎标  题 师兄啊师兄
◎译  名 我师兄实在太稳健了 / My Senior Brother is Too Steady
◎年  代 2023
◎产  地 中国大陆
◎类  别 喜剧 / 动作 / 动画 / 奇幻 / 古装
◎语  言 汉语普通话
◎IMDb评分 8.5/10 (13人评价)
◎IMDb链接 https://www.imdb.com/title/tt27834263/
◎豆瓣评分 7.8/10 (3012人评价)
◎豆瓣链接 https://movie.douban.com/subject/36117913/
◎导  演 金蕾 Lei Jin
◎编  剧 沈乐平 Leping Shen
◎演  员 杨超然
      张若瑜 Zhang Ruoyu
      陈彦亦 Yanyi Chen
      安志 Zhi An
      陈瑜瑾 Yujin Chen
      程玉珠 Yuzhu Cheng
      唐昊
      陈鹏 Peng Chen
      张坤 Kun Zhang
      杨超然 Chaoran Yang
      宋国庆

◎简  介
    身患绝症的年轻人李长寿,意外重生在封神大战之前的上古时代,成了一个炼气士。为了修得长生不老且能在残酷的洪荒安身立命,他低调行事,凡事谋而后动,从不轻易步入危险之中,藏底牌,修遁术,炼丹毒,直到有一天,他的师傅突然给他收了个师妹回来,本想低调修行的李长寿被卷入了一场场冒险。不动稳如老狗,一动石破天惊,动后悄声走人,在打败邪恶敌人的同时,结交志同道合的朋友,实现自己的人生价值。

部分资源为软字幕,移动端推荐播放器:MxPlayer,nPlayer,infuse ,其他播放器请自行尝试。

部分资源为软字幕,电脑端推荐播放器:PotPlayer,完美解码,KMPLAYER,其他播放器请自行尝试。

下载端推荐纯BT下载软件:qBittorrent,Bitcomet,uTorrent ,其他下载软件请自行尝试。不支持吸血迅雷。

##### MediaInfo ######
General
Complete name : Big.Brother.S01E37.2023.1080p.WEB-DL.H264.AAC-LelveTV.mp4
Duration : 20 min 50 s
Overall bit rate mode : Variable
Overall bit rate : 2 464 kb/s

Video
ID : 1
Format : AVC
Format/Info : Advanced Video Codec
Format profile : High@L5
Format settings : CABAC / 5 Ref Frames
Format settings, CABAC : Yes
Format settings, Reference frames : 5 frames
Codec ID : avc1
Codec ID/Info : Advanced Video Coding
Duration : 20 min 50 s
Bit rate : 2 359 kb/s
Width : 1 920 pixels
Height : 1 080 pixels
Display aspect ratio : 16:9
Frame rate mode : Constant
Frame rate : 30.000 FPS
Color space : YUV
Chroma subsampling : 4:2:0
Bit depth : 8 bits
Scan type : Progressive
Bits/(Pixel*Frame) : 0.038
Stream size : 352 MiB (96%)
Color range : Limited
Color primaries : BT.709
Transfer characteristics : BT.709
Matrix coefficients : BT.709
Codec configuration box : avcC

Audio
ID : 2
Format : AAC LC
Format/Info : Advanced Audio Codec Low Complexity
Codec ID : mp4a-40-2
Duration : 20 min 50 s
Bit rate mode : Variable
Bit rate : 96.0 kb/s
Maximum bit rate : 99.7 kb/s
Channel(s) : 2 channels
Channel layout : L R
Sampling rate : 44.1 kHz
Frame rate : 43.066 FPS (1024 SPF)
Compression mode : Lossy
Stream size : 14.3 MiB (4%)
Default : Yes
Alternate group : 1




1 个附件 售价 大小 下载 时间

Big.Brother.S01.2023.1080p.WEB-DL.H264.AAC-LelveTV[1LOU.ME].torrent 0 金币 3.41K 154 次 26天前

#1楼
发帖时间:2024-05-18 20:19:31   |   回复数:0
游客组